微博 微信

Hao4K影音

电影频道
电影封面:
片  名: 忌日快乐2 4K
电影分类: 恐怖 惊悚 悬疑 
国  家: 美国 
年  代: 2019年
分 辨 率: 4K(3840x2160)
电影格式: MKV|REMUX 
画质标准: HDR 
音质编码: DTS-HD Master Audio 
电影声道: 5.1声道 
帧数/FPS: 23.976 帧
电影语言: 英文原版 
资源大小: 13.45 GB
导  演: 克里斯托弗·兰登
豆瓣评分: 6.6 分
中文字幕: /thread-56256-1-1.html
剧情简介: 停靠在路边的汽车内,黄毛小子瑞恩(飞·武 Phi Vu 饰)被其他汽车的喇叭惊醒,他昏头昏脑走下来,一路晃进校园,进了实验室。由于正在研究的装置耗能巨大,学院院长气急败坏责令瑞恩停掉在研项目。糟糕的事不止于此,事后不久他就被一个带着面具的家伙给杀掉了。然而,他再度醒来, 发现自己还躺在车里,而接下来发生的一切都和“梦境”中的一样。瑞恩惶恐不安,找到了好基友卡特·戴维斯(伊瑟尔·布罗萨德 Israel Broussard 饰)及其女友泰莉·格尔布曼(杰西卡·罗德 Jessica Rothe 饰)。
  这种生死轮回对于泰莉再熟悉不过了,她首先跟瑞恩讲述自己的经历,随后告诉他想终止轮回的方法只有找到凶手。而接下来,他们不仅发现瑞恩那台装置似乎是造成轮回的一个成因,而且泰莉再次回到了那个可怕的早晨
死亡无限2次LOOP(港) / 祝你忌日快乐(台) / Happy Death Day 2 / Happy Death Day to You/忌日快乐2 4K.Happy.Death.Day.2U.2019.2160p.AMZN.WEB-DL.x265.10bit.HDR10Plus.DTS-HD.MA.5.1-4k电影信息
  1. Video
  2. ID : 1
  3. Format : HEVC
  4. Format/Info : High Efficiency Video Coding
  5. Format profile : Main 10@L5@Main
  6. HDR format : SMPTE ST 2094 App 4, Version 1, HDR10+ Profile B compatible
  7. Codec ID : V_MPEGH/ISO/HEVC
  8. Duration : 1 h 39 min
  9. Bit rate : 14.8 Mb/s
  10. Width : 3 840 pixels
  11. Height : 1 600 pixels
  12. Display aspect ratio : 2.40:1
  13. Frame rate mode : Constant
  14. Frame rate : 23.976 (24000/1001) FPS
  15. Color space : YUV
  16. Chroma subsampling : 4:2:0
  17. Bit depth : 10 bits
  18. Bits/(Pixel*Frame) : 0.101
  19. Stream size : 10.4 GiB (77%)
  20. Language : English
  21. Default : Yes
  22. Forced : No
  23. Color range : Limited
  24. Color primaries : BT.2020
  25. Transfer characteristics : PQ
  26. Matrix coefficients : BT.2020 non-constant
  27. Mastering display color primaries : Display P3
  28. Mastering display luminance : min: 0.0050 cd/m2, max: 1000 cd/m2
  29. Maximum Content Light Level : 962 cd/m2
  30. Maximum Frame-Average Light Level : 491 cd/m2

  31. Audio #1
  32. ID : 2
  33. Format : DTS XLL
  34. Format/Info : Digital Theater Systems
  35. Commercial name : DTS-HD Master Audio
  36. Codec ID : A_DTS
  37. Duration : 1 h 39 min
  38. Bit rate mode : Variable
  39. Bit rate : 3 778 kb/s
  40. Channel(s) : 6 channels
  41. Channel layout : C L R Ls Rs LFE
  42. Sampling rate : 48.0 kHz
  43. Frame rate : 93.750 FPS (512 SPF)
  44. Bit depth : 24 bits
  45. Compression mode : Lossless
  46. Delay relative to video : 1 s 0 ms
  47. Stream size : 2.64 GiB (20%)
  48. Title : DTS-HD MA 5.1
  49. Language : English
  50. Default : Yes
  51. Forced : No

  52. Audio #2
  53. ID : 3
  54. Format : E-AC-3
  55. Format/Info : Enhanced AC-3
  56. Commercial name : Dolby Digital Plus
  57. Codec ID : A_EAC3
  58. Duration : 1 h 39 min
  59. Bit rate mode : Constant
  60. Bit rate : 640 kb/s
  61. Channel(s) : 6 channels
  62. Channel layout : L R C LFE Ls Rs
  63. Sampling rate : 48.0 kHz
  64. Frame rate : 31.250 FPS (1536 SPF)
  65. Compression mode : Lossy
  66. Stream size : 458 MiB (3%)
  67. Title : DDP 5.1
  68. Language : English
  69. Service kind : Complete Main
  70. Default : No
  71. Forced : No

  72. Text
  73. ID : 4
  74. Format : UTF-8
  75. Codec ID : S_TEXT/UTF8
  76. Codec ID/Info : UTF-8 Plain Text
  77. Duration : 1 h 39 min
  78. Bit rate : 67 b/s
  79. Count of elements : 1868
  80. Stream size : 49.5 KiB (0%)
  81. Title : English
  82. Language : English
  83. Default : Yes
  84. Forced : No

  85. Menu
  86. 00:00:00.000 : en:Chapter 1
  87. 00:07:42.253 : en:Chapter 2
  88. 00:16:01.085 : en:Chapter 3
  89. 00:21:16.066 : en:Chapter 4
  90. 00:24:21.460 : en:Chapter 5
  91. 00:28:44.890 : en:Chapter 6
  92. 00:32:34.661 : en:Chapter 7
  93. 00:37:15.817 : en:Chapter 8
  94. 00:42:02.812 : en:Chapter 9
  95. 00:45:35.107 : en:Chapter 10
  96. 00:48:37.665 : en:Chapter 11
  97. 00:54:27.347 : en:Chapter 12
  98. 01:00:36.341 : en:Chapter 13
  99. 01:06:24.314 : en:Chapter 14
  100. 01:13:19.520 : en:Chapter 15
  101. 01:17:47.079 : en:Chapter 16
  102. 01:21:31.762 : en:Chapter 17
  103. 01:27:36.084 : en:Chapter 18
  104. 01:33:02.994 : en:Chapter 19
  105. 01:35:05.700 : en:Chapter 20
复制代码

死亡无限2次LOOP(港) / 祝你忌日快乐(台) / Happy Death Day 2 / Happy Death Day to You/忌日快乐2 4K.Happy.Death.Day.2U.2019.2160p.AMZN.WEB-DL.x265.10bit.HDR10Plus.DTS-HD.MA.5.1-4K电影下载

忌日快乐2 4K.Happy.Death.Day.2U.2019.2160p.AMZN.WEB-DL.x265.10bit.HDR10Plus.DTS-HD.MA.5.1【4K HDR 13.45 GB】
[Hao4K]忌日快乐2 4K.Happy.Death.Day.2U.2019.2160p.AMZN.WEB-DL.x265.10bit.HDR10Pl.torrent (67.95 KB, 售价: 2 K币)
回复

使用道具 举报

   发表回复

您需要登录后才可以回帖 登录 | 立即注册

返回列表 本版积分规则

  • 在线客服

  • 返回顶部