微博 微信

Hao4K影音

电影频道
电影封面:
片  名: 让他们说吧4K
电影分类: 剧情 喜剧 
国  家: 美国 
年  代: 2020年
分 辨 率: 4K(3840x2160)
电影格式: MKV|REMUX 
画质标准: HDR10 
音质编码: Dolby Digital Plus Audio 
电影声道: 5.1声道 
帧数/FPS: 23.976 帧
电影语言: 英文原版 
资源大小: 12.03 GB
导  演: 史蒂文·索德伯格
豆瓣评分: 6.5 分
中文字幕: -
剧情简介: 某知名小说家(斯特里普饰)要到英国去领奖,她的两位老朋友(坎迪斯·伯根和黛安·韦斯特饰)和侄子(卢卡斯·赫奇斯饰)与她一起乘船出行,在船上,大家掀起了一场充满回忆、遗憾和辩论的狂欢,她的侄子还跟她的助理(嘉玛·陈饰)培养了亲密关系。
畅所欲言/让他们说吧4K.Let.Them.All.Talk.2020.2160p.AMZN.WEB-DL.x265.10bit.HDR10Plus.DDP5.1-4k电影信息
  1. Video
  2. ID : 1
  3. Format : HEVC
  4. Format/Info : High Efficiency Video Coding
  5. Format profile : Main 10@L5@Main
  6. HDR format : SMPTE ST 2094 App 4, Version 1, HDR10+ Profile B compatible
  7. Codec ID : V_MPEGH/ISO/HEVC
  8. Duration : 1 h 52 min
  9. Bit rate : 14.6 Mb/s
  10. Width : 3 840 pixels
  11. Height : 1 600 pixels
  12. Display aspect ratio : 2.40:1
  13. Frame rate mode : Constant
  14. Frame rate : 23.976 (24000/1001) FPS
  15. Color space : YUV
  16. Chroma subsampling : 4:2:0
  17. Bit depth : 10 bits
  18. Bits/(Pixel*Frame) : 0.099
  19. Stream size : 11.5 GiB (96%)
  20. Default : Yes
  21. Forced : No
  22. Color range : Limited
  23. Color primaries : BT.2020
  24. Transfer characteristics : PQ
  25. Matrix coefficients : BT.2020 non-constant
  26. Mastering display color primaries : BT.2020
  27. Mastering display luminance : min: 0.0001 cd/m2, max: 1000 cd/m2
  28. Maximum Content Light Level : 434 cd/m2
  29. Maximum Frame-Average Light Level : 90 cd/m2

  30. Audio
  31. ID : 2
  32. Format : E-AC-3
  33. Format/Info : Enhanced AC-3
  34. Commercial name : Dolby Digital Plus
  35. Codec ID : A_EAC3
  36. Duration : 1 h 52 min
  37. Bit rate mode : Constant
  38. Bit rate : 640 kb/s
  39. Channel(s) : 6 channels
  40. Channel layout : L R C LFE Ls Rs
  41. Sampling rate : 48.0 kHz
  42. Frame rate : 31.250 FPS (1536 SPF)
  43. Compression mode : Lossy
  44. Stream size : 517 MiB (4%)
  45. Title : English
  46. Language : English
  47. Service kind : Complete Main
  48. Default : Yes
  49. Forced : No

  50. Text #1
  51. ID : 3
  52. Format : UTF-8
  53. Codec ID : S_TEXT/UTF8
  54. Codec ID/Info : UTF-8 Plain Text
  55. Duration : 1 h 49 min
  56. Bit rate : 79 b/s
  57. Count of elements : 2043
  58. Stream size : 63.8 KiB (0%)
  59. Title : English
  60. Language : English
  61. Default : No
  62. Forced : No

  63. Text #2
  64. ID : 4
  65. Format : UTF-8
  66. Codec ID : S_TEXT/UTF8
  67. Codec ID/Info : UTF-8 Plain Text
  68. Duration : 1 h 52 min
  69. Bit rate : 57 b/s
  70. Count of elements : 1439
  71. Stream size : 47.4 KiB (0%)
  72. Title : European Spanish
  73. Language : Spanish
  74. Default : No
  75. Forced : No
复制代码

畅所欲言/让他们说吧4K.Let.Them.All.Talk.2020.2160p.AMZN.WEB-DL.x265.10bit.HDR10Plus.DDP5.1-4K电影下载
让他们说吧4K.Let.Them.All.Talk.2020.2160p.AMZN.WEB-DL.x265.10bit.HDR10Plus.DDP5.1【4K HDR 12.03 GB】
[Hao4K]让他们说吧4K.Let.Them.All.Talk.2020.2160p.AMZN.WEB-DL.x265.10bit.HDR10Plu.torrent (60.81 KB, 售价: 2 K币)
回复

使用道具 举报

全部回复34

ipo 发表于 2021-4-17 14:02:52

ipo 沙发

2021-4-17 14:02:52

什么是“新资源就挂机下载”
回复 支持 反对

使用道具 举报

青衫烟雨 发表于 2021-4-17 14:28:03

青衫烟雨 板凳

2021-4-17 14:28:03

ipo 发表于 2021-4-17 14:02
什么是“新资源就挂机下载”

就是用BT下载软件添加track种子服务器挂机下载
新手学堂有教程,新种一般只有挂机 115网盘的话可以过1-2天后快速离线 多看看教程吧 要不然会闹笑话
回复 支持 1 反对 1

使用道具 举报

ipo 发表于 2021-4-17 14:30:35

ipo 地板

2021-4-17 14:30:35

“多看看教程吧 要不然会闹笑话”无所谓,谢谢!
回复 支持 反对

使用道具 举报

andywjhh 发表于 2021-4-17 15:10:42

andywjhh 5#

2021-4-17 15:10:42

好资源很给力
回复 支持 反对

使用道具 举报

hai668100 发表于 2021-4-17 17:00:58

hai668100 6#

2021-4-17 17:00:58


谢谢,下了看看不知道好不好看
回复 支持 反对

使用道具 举报

loushunming 发表于 2021-4-17 19:21:11

loushunming 7#

2021-4-17 19:21:11

谢谢版主无私分享
回复 支持 反对

使用道具 举报

caohongda1881 发表于 2021-4-17 19:44:29

caohongda1881 8#

2021-4-17 19:44:29

测试一下   
回复 支持 反对

使用道具 举报

15876287122 发表于 2021-4-17 21:34:27

15876287122 9#

2021-4-17 21:34:27

谢谢版主无私分享
回复 支持 反对

使用道具 举报

yale 发表于 2021-4-18 15:08:50

yale 10#

2021-4-18 15:08:50

谢谢分享
回复 支持 反对

使用道具 举报

双双 发表于 2021-4-18 23:08:19

双双 11#

2021-4-18 23:08:19

谢谢分享
回复 支持 反对

使用道具 举报

dk30129 发表于 2021-4-19 08:34:28

dk30129 12#

2021-4-19 08:34:28

谢谢分享,辛苦了!!
回复 支持 反对

使用道具 举报

dragon_walk 发表于 2021-4-19 10:20:33

dragon_walk 13#

2021-4-19 10:20:33

下载看看,喜剧片,都可以看
回复 支持 反对

使用道具 举报

lifeimax 发表于 2021-4-19 10:54:53

lifeimax 14#

2021-4-19 10:54:53


谢谢分享
回复 支持 反对

使用道具 举报

andywjhh 发表于 2021-4-19 15:40:12

andywjhh 15#

2021-4-19 15:40:12

好资源很给力
回复 支持 反对

使用道具 举报

suxiuxiu 发表于 2021-4-19 16:07:24

suxiuxiu 16#

2021-4-19 16:07:24

谢谢分享
回复 支持 反对

使用道具 举报

bonna 发表于 2021-4-19 20:57:21

bonna 17#

2021-4-19 20:57:21

斯特里普
回复 支持 反对

使用道具 举报

dk30129 发表于 2021-4-20 08:08:21

dk30129 18#

2021-4-20 08:08:21

谢谢分享,顶你!
回复 支持 反对

使用道具 举报

   发表回复

您需要登录后才可以回帖 登录 | 立即注册

返回列表 本版积分规则

  • 在线客服

  • 返回顶部