微博 微信

Hao4K影音

电影频道
电影封面:
片  名: 真人快打4K
电影分类: 动作 冒险 奇幻 
国  家: 美国 
年  代: 2021年
分 辨 率: 4K(3840x2160)
电影格式: MKV|REMUX 
画质标准: HDR 
音质编码: Dolby-Atmos Dolby Digital Plus Audio 
电影声道: 5.1声道 
帧数/FPS: 23.976 帧
电影语言: 英文原版 
资源大小: 91.81 GB
导  演: 西蒙·麦奎德
豆瓣评分: 6.4 分
中文字幕: /thread-56586-1-1.html
剧情简介: 援引That Hashtag Show消息,乔尔·埃哲顿是新线游改电影[真人快打:毁灭]中Kano角色的首选。埃哲顿此番将使用他的澳洲本土口音。本片由温子仁担任制片人,西蒙·麦夸伊德执导,格雷格·罗素已完成了剧本。影片将围绕一个身心俱疲的拳击手科尔·特纳展开,他被招募来帮助保护地球和他的女儿。他必须加入一支战斗队伍,与来自另一个维度的杀手进行一场永恒的战斗。该片有望今夏在澳洲开机。
真人快打:毁灭 / 格斗之王 / MK3: Domination / Mortal Kombat 3 / Mortal Kombat: Devastation/真人快打4K.Mortal.Kombat.2021.2160p.HMAX.WEB-DL.x265.10bit.HDR.DDP5.1.Atmos-4k电影下载
  1. Video
  2. ID : 1
  3. Format : HEVC
  4. Format/Info : High Efficiency Video Coding
  5. Format profile : Main 10@L4@Main
  6. HDR format : SMPTE ST 2086, HDR10 compatible
  7. Codec ID : V_MPEGH/ISO/HEVC
  8. Duration : 1 h 50 min
  9. Bit rate : 6 481 kb/s
  10. Width : 1 920 pixels
  11. Height : 1 080 pixels
  12. Display aspect ratio : 16:9
  13. Frame rate mode : Constant
  14. Frame rate : 23.976 (24000/1001) FPS
  15. Color space : YUV
  16. Chroma subsampling : 4:2:0
  17. Bit depth : 10 bits
  18. Bits/(Pixel*Frame) : 0.130
  19. Stream size : 4.98 GiB (89%)
  20. Writing library : x265 3.4hy:[Linux][GCC 7.5.0][64 bit] 10bit
  21. Encoding settings : cpuid=1111039 / frame-threads=1 / wpp / no-pmode / no-pme / no-psnr / no-ssim / log-level=2 / input-csp=1 / input-res=1920x1080 / interlace=0 / total-frames=0 / level-idc=0 / high-tier=1 / uhd-bd=0 / ref=4 / no-allow-non-conformance / repeat-headers / annexb / no-aud / no-hrd / info / hash=0 / no-temporal-layers / no-open-gop / min-keyint=96 / keyint=96 / gop-lookahead=0 / bframes=3 / b-adapt=2 / b-pyramid / bframe-bias=0 / rc-lookahead=25 / lookahead-slices=4 / scenecut=40 / hist-scenecut=0 / radl=0 / no-splice / no-intra-refresh / ctu=64 / min-cu-size=8 / rect / no-amp / max-tu-size=32 / tu-inter-depth=1 / tu-intra-depth=1 / limit-tu=0 / rdoq-level=2 / dynamic-rd=0.00 / no-ssim-rd / signhide / no-tskip / nr-intra=0 / nr-inter=0 / no-constrained-intra / strong-intra-smoothing / max-merge=3 / limit-refs=3 / limit-modes / me=3 / subme=3 / merange=57 / temporal-mvp / no-frame-dup / no-hme / weightp / no-weightb / no-analyze-src-pics / deblock=0:0 / sao / no-sao-non-deblock / rd=4 / selective-sao=4 / no-early-skip / rskip / no-fast-intra / no-tskip-fast / no-cu-lossless / no-b-intra / no-splitrd-skip / rdpenalty=0 / psy-rd=2.00 / psy-rdoq=1.00 / no-rd-refine / no-lossless / cbqpoffs=0 / crqpoffs=0 / rc=abr / bitrate=6500 / qcomp=0.60 / qpstep=4 / stats-write=0 / stats-read=2 / cplxblur=20.0 / qblur=0.5 / vbv-maxrate=9750 / vbv-bufsize=9750 / vbv-init=0.6 / vbv-end=0.6 / vbv-end-fr-adj=0.0 / ipratio=1.40 / pbratio=1.30 / aq-mode=2 / aq-strength=1.00 / cutree / zone-count=0 / no-strict-cbr / qg-size=32 / no-rc-grain / qpmax=69 / qpmin=0 / no-const-vbv / sar=0 / overscan=0 / videoformat=5 / range=0 / colorprim=9 / transfer=16 / colormatrix=9 / chromaloc=0 / display-window=0 / master-display=G(13250,34500)B(7500,3000)R(34000,16000)WP(15635,16450)L(10000000,1) / cll=825,118 / min-luma=0 / max-luma=1023 / log2-max-poc-lsb=8 / vui-timing-info / vui-hrd-info / no-concatenation / slices=1 / no-opt-qp-pps / no-opt-ref-list-length-pps / no-multi-pass-opt-rps / scenecut-bias=0.05 / hist-threshold=0.01 / no-opt-cu-delta-qp / no-aq-motion / hdr10 / no-hdr10-opt / no-dhdr10-opt / no-idr-recovery-sei / analysis-reuse-level=0 / analysis-save-reuse-level=0 / analysis-load-reuse-level=0 / scale-factor=0 / refine-intra=0 / refine-inter=0 / refine-mv=1 / refine-ctu-distortion=0 / no-limit-sao / ctu-info=0 / no-lowpass-dct / refine-analysis-type=0 / copy-pic=1 / max-ausize-factor=1.0 / no-dynamic-refine / no-single-sei / no-hevc-aq / no-svt / no-field / qp-adaptation-range=1.00 / no-scenecut-aware-qpconformance-window-offsets / right=0 / bottom=0 / decoder-max-rate=0
  22. Default : Yes
  23. Forced : No
  24. Color range : Limited
  25. Color primaries : BT.2020
  26. Transfer characteristics : PQ
  27. Matrix coefficients : BT.2020 non-constant
  28. Mastering display color primaries : Display P3
  29. Mastering display luminance : min: 0.0001 cd/m2, max: 1000 cd/m2
  30. Maximum Content Light Level : 825 cd/m2
  31. Maximum Frame-Average Light Level : 118 cd/m2

  32. Audio
  33. ID : 2
  34. Format : E-AC-3 JOC
  35. Format/Info : Enhanced AC-3 with Joint Object Coding
  36. Commercial name : Dolby Digital Plus with Dolby Atmos
  37. Codec ID : A_EAC3
  38. Duration : 1 h 50 min
  39. Bit rate mode : Constant
  40. Bit rate : 768 kb/s
  41. Channel(s) : 6 channels
  42. Channel layout : L R C LFE Ls Rs
  43. Sampling rate : 48.0 kHz
  44. Frame rate : 31.250 FPS (1536 SPF)
  45. Compression mode : Lossy
  46. Stream size : 604 MiB (11%)
  47. Language : English
  48. Service kind : Complete Main
  49. Default : Yes
  50. Forced : No
  51. Complexity index : 16
  52. Number of dynamic objects : 15
  53. Bed channel count : 1 channel
  54. Bed channel configuration : LFE

  55. Text #1
  56. ID : 3
  57. Format : UTF-8
  58. Codec ID : S_TEXT/UTF8
  59. Codec ID/Info : UTF-8 Plain Text
  60. Duration : 1 h 41 min
  61. Bit rate : 43 b/s
  62. Count of elements : 1352
  63. Stream size : 32.1 KiB (0%)
  64. Title : English
  65. Language : English
  66. Default : No
  67. Forced : No

  68. Text #2
  69. ID : 4
  70. Format : UTF-8
  71. Codec ID : S_TEXT/UTF8
  72. Codec ID/Info : UTF-8 Plain Text
  73. Duration : 1 h 38 min
  74. Bit rate : 43 b/s
  75. Count of elements : 1223
  76. Stream size : 31.3 KiB (0%)
  77. Title : Español (Latinoamérica)
  78. Language : Spanish
  79. Default : No
  80. Forced : No
复制代码

真人快打:毁灭 / 格斗之王 / MK3: Domination / Mortal Kombat 3 / Mortal Kombat: Devastation/真人快打4K.Mortal.Kombat.2021.2160p.HMAX.WEB-DL.x265.10bit.HDR.DDP5.1.Atmos-4k电影下载

真人快打4K.Mortal.Kombat.2021.2160p.HMAX.WEB-DL.x265.10bit.HDR.DDP5.1.Atmos【4K HDR 14.37 GB】
[Hao4K]真人快打4K.Mortal.Kombat.2021.2160p.HMAX.WEB-DL.x265.10bit.HDR.DDP5.1.Atm.torrent (72.52 KB, 售价: 3 K币)
回复

使用道具 举报

   发表回复

您需要登录后才可以回帖 登录 | 立即注册

返回列表 本版积分规则

  • 在线客服

  • 返回顶部