微博 微信

Hao4K影音

电影频道
电影封面:
片  名: 野狗4k
电影分类: 动作 惊悚 
国  家: 印度 
年  代: 2021年
分 辨 率: 4K(3840x2160)
电影格式: MKV|REMUX 
画质标准: 其他 
音质编码: 其他DD 
电影声道: 5.1声道 
帧数/FPS: 24.000 帧
电影语言: 无字幕 
资源大小: 16 GB
导  演: Ahishor Solomon
豆瓣评分: 6.5 分
中文字幕: -
剧情简介: -
野狗4k Wild Dog 2021 4K 2160p电影信息
  1. Video
  2. ID                                       : 1
  3. Format                                   : HEVC
  4. Format/Info                              : High Efficiency Video Coding
  5. Format profile                           : [email protected]@Main
  6. Codec ID                                 : V_MPEGH/ISO/HEVC
  7. Duration                                 : 2 h 6 min
  8. Bit rate                                 : 15.6 Mb/s
  9. Width                                    : 3 840 pixels
  10. Height                                   : 2 160 pixels
  11. Display aspect ratio                     : 16:9
  12. Frame rate mode                          : Constant
  13. Frame rate                               : 24.000 FPS
  14. Standard                                 : NTSC
  15. Color space                              : YUV
  16. Chroma subsampling                       : 4:2:0
  17. Bit depth                                : 8 bits
  18. Bits/(Pixel*Frame)                       : 0.078
  19. Stream size                              : 13.8 GiB (86%)
  20. Default                                  : Yes
  21. Forced                                   : No
  22. Color range                              : Limited
  23. Color primaries                          : BT.709
  24. Transfer characteristics                 : BT.709 / BT.709
  25. Matrix coefficients                      : BT.709

  26. Audio #1
  27. ID                                       : 2
  28. Format                                   : E-AC-3
  29. Format/Info                              : Enhanced AC-3
  30. Commercial name                          : Dolby Digital Plus
  31. Codec ID                                 : A_EAC3
  32. Duration                                 : 2 h 6 min
  33. Bit rate mode                            : Constant
  34. Bit rate                                 : 640 kb/s
  35. Channel(s)                               : 6 channels
  36. Channel layout                           : L R C LFE Ls Rs
  37. Sampling rate                            : 48.0 kHz
  38. Frame rate                               : 31.250 FPS (1536 SPF)
  39. Compression mode                         : Lossy
  40. Stream size                              : 578 MiB (4%)
  41. Language                                 : Tamil
  42. Service kind                             : Complete Main
  43. Default                                  : Yes
  44. Forced                                   : No

  45. Audio #2
  46. ID                                       : 3
  47. Format                                   : E-AC-3
  48. Format/Info                              : Enhanced AC-3
  49. Commercial name                          : Dolby Digital Plus
  50. Codec ID                                 : A_EAC3
  51. Duration                                 : 2 h 6 min
  52. Bit rate mode                            : Constant
  53. Bit rate                                 : 640 kb/s
  54. Channel(s)                               : 6 channels
  55. Channel layout                           : L R C LFE Ls Rs
  56. Sampling rate                            : 48.0 kHz
  57. Frame rate                               : 31.250 FPS (1536 SPF)
  58. Compression mode                         : Lossy
  59. Stream size                              : 578 MiB (4%)
  60. Language                                 : Telugu
  61. Service kind                             : Complete Main
  62. Default                                  : No
  63. Forced                                   : No

  64. Audio #3
  65. ID                                       : 4
  66. Format                                   : E-AC-3
  67. Format/Info                              : Enhanced AC-3
  68. Commercial name                          : Dolby Digital Plus
  69. Codec ID                                 : A_EAC3
  70. Duration                                 : 2 h 6 min
  71. Bit rate mode                            : Constant
  72. Bit rate                                 : 640 kb/s
  73. Channel(s)                               : 6 channels
  74. Channel layout                           : L R C LFE Ls Rs
  75. Sampling rate                            : 48.0 kHz
  76. Frame rate                               : 31.250 FPS (1536 SPF)
  77. Compression mode                         : Lossy
  78. Stream size                              : 578 MiB (4%)
  79. Language                                 : Malayalam
  80. Service kind                             : Complete Main
  81. Default                                  : No
  82. Forced                                   : No

  83. Audio #4
  84. ID                                       : 5
  85. Format                                   : E-AC-3
  86. Format/Info                              : Enhanced AC-3
  87. Commercial name                          : Dolby Digital Plus
  88. Codec ID                                 : A_EAC3
  89. Duration                                 : 2 h 6 min
  90. Bit rate mode                            : Constant
  91. Bit rate                                 : 640 kb/s
  92. Channel(s)                               : 6 channels
  93. Channel layout                           : L R C LFE Ls Rs
  94. Sampling rate                            : 48.0 kHz
  95. Frame rate                               : 31.250 FPS (1536 SPF)
  96. Compression mode                         : Lossy
  97. Stream size                              : 578 MiB (4%)
  98. Language                                 : Kannada
  99. Service kind                             : Complete Main
  100. Default                                  : No
  101. Forced                                   : No

  102. Text
  103. ID                                       : 6
  104. Format                                   : UTF-8
  105. Codec ID                                 : S_TEXT/UTF8
  106. Codec ID/Info                            : UTF-8 Plain Text
  107. Duration                                 : 1 h 58 min
  108. Bit rate                                 : 47 b/s
  109. Count of elements                        : 1336
  110. Stream size                              : 41.6 KiB (0%)
  111. Language                                 : English
  112. Default                                  : No
  113. Forced                                   : No
复制代码


野狗4k Wild Dog 2021 4K 2160p电影下载

下载地址: 野狗4k.txt (87 Bytes)
回复

使用道具 举报

全部回复7

xzfxzf2012 发表于 2021-4-25 11:43:45

xzfxzf2012 沙发

2021-4-25 11:43:45

地址在哪呢
回复 支持 反对

使用道具 举报

lchlxx 发表于 2021-4-25 12:42:18

lchlxx 板凳

2021-4-25 12:42:18

先谢谢楼主 不过没看到链接
回复 支持 反对

使用道具 举报

18520199909 发表于 2021-4-25 13:23:40 Hao4K手机版

18520199909 地板

2021-4-25 13:23:40

谢谢楼主!印度电影很难找到字幕,上次下载的野牛,一直没有字幕
回复 支持 反对

使用道具 举报

yxd731 发表于 2021-4-25 14:01:31

yxd731 5#

2021-4-25 14:01:31

试试,谢谢楼主
回复 支持 反对

使用道具 举报

dragon_walk 发表于 2021-4-26 10:14:27

dragon_walk 6#

2021-4-26 10:14:27

不知好看不。片荒。饥不择食了。谢谢先
回复 支持 反对

使用道具 举报

xhl079669 发表于 2021-4-26 18:07:23

xhl079669 7#

2021-4-26 18:07:23

谢谢分享!
回复 支持 反对

使用道具 举报

_bryan 发表于 2021-4-27 19:03:55

_bryan 8#

2021-4-27 19:03:55

回复 支持 反对

使用道具 举报

   发表回复

您需要登录后才可以回帖 登录 | 立即注册

返回列表 本版积分规则

  • 在线客服

  • 返回顶部