微博 微信

Hao4K影音

电影频道
电影封面:
片  名: 葬礼再聚首4k
电影分类: 剧情 喜剧 
国  家: 印度 
年  代: 2019年
分 辨 率: 4K(3840x2160)
电影格式: MKV|REMUX 
画质标准: 其他 
音质编码: 其他DD 
电影声道: 5.1声道 
帧数/FPS: 24.000 帧
电影语言: 中文简体 中文繁体 
资源大小: 14.7 GB
导  演: 西玛·帕瓦
豆瓣评分: 7.8 分
中文字幕: -
剧情简介: 衝突、事端和當面對峙,導致一個多世代家族在勒克瑙的團聚,成為一場情緒激動且曲折不斷的家務風波
葬礼再聚首4k Ramprasad.Ki.Tehrvi.2021.2160p.电影信息
  1. Video
  2. ID : 1
  3. Format : AVC
  4. Format/Info : Advanced Video Codec
  5. Format profile : [email protected]
  6. Format settings, CABAC : Yes
  7. Format settings, ReFrames : 3 frames
  8. Codec ID : V_MPEG4/ISO/AVC
  9. Duration : 1h 55mn
  10. Bit rate : 17.6 Mbps
  11. Width : 3 840 pixels
  12. Height : 1 632 pixels
  13. Display aspect ratio : 2.35:1
  14. Frame rate mode : Constant
  15. Frame rate : 24.000 fps
  16. Standard : NTSC
  17. Color space : YUV
  18. Chroma subsampling : 4:2:0
  19. Bit depth : 8 bits
  20. Scan type : Progressive
  21. Bits/(Pixel*Frame) : 0.117
  22. Stream size : 14.2 GiB (97%)
  23. Default : Yes
  24. Forced : No
  25. Color range : Limited
  26. Color primaries : BT.709
  27. Transfer characteristics : BT.709
  28. Matrix coefficients : BT.709

  29. Audio
  30. ID : 2
  31. Format : E-AC-3
  32. Format/Info : Audio Coding 3
  33. Format settings, Endianness : Big
  34. Codec ID : A_EAC3
  35. Duration : 1h 52mn
  36. Bit rate mode : Constant
  37. Bit rate : 640 Kbps
  38. Channel(s) : 6 channels
  39. Channel positions : Front: L C R, Side: L R, LFE
  40. Sampling rate : 48.0 KHz
  41. Frame rate : 187.500 fps (256 spf)
  42. Compression mode : Lossy
  43. Stream size : 517 MiB (3%)
  44. Title : Hindi
  45. Language : Hindi
  46. Default : Yes
  47. Forced : No

  48. Text #1
  49. ID : 3
  50. Format : UTF-8
  51. Codec ID : S_TEXT/UTF8
  52. Codec ID/Info : UTF-8 Plain Text
  53. Duration : 1h 52mn
  54. Bit rate : 172 bps
  55. Count of elements : 1700
  56. Stream size : 143 KiB (0%)
  57. Title : Hindi
  58. Language : Hindi
  59. Default : No
  60. Forced : No

  61. Text #2
  62. ID : 4
  63. Format : UTF-8
  64. Codec ID : S_TEXT/UTF8
  65. Codec ID/Info : UTF-8 Plain Text
  66. Duration : 1h 52mn
  67. Bit rate : 5 bps
  68. Count of elements : 56
  69. Stream size : 4.55 KiB (0%)
  70. Title : Forced
  71. Language : Hindi
  72. Default : No
  73. Forced : Yes

  74. Text #3
  75. ID : 5
  76. Format : UTF-8
  77. Codec ID : S_TEXT/UTF8
  78. Codec ID/Info : UTF-8 Plain Text
  79. Duration : 1h 44mn
  80. Bit rate : 75 bps
  81. Count of elements : 1652
  82. Stream size : 57.7 KiB (0%)
  83. Title : English
  84. Language : English
  85. Default : No
  86. Forced : No

  87. Text #4
  88. ID : 6
  89. Format : UTF-8
  90. Codec ID : S_TEXT/UTF8
  91. Codec ID/Info : UTF-8 Plain Text
  92. Duration : 1h 44mn
  93. Bit rate : 75 bps
  94. Count of elements : 1652
  95. Stream size : 57.7 KiB (0%)
  96. Title : English
  97. Language : English
  98. Default : No
  99. Forced : No

  100. Text #5
  101. ID : 7
  102. Format : UTF-8
  103. Codec ID : S_TEXT/UTF8
  104. Codec ID/Info : UTF-8 Plain Text
  105. Duration : 1h 50mn
  106. Bit rate : 122 bps
  107. Count of elements : 1616
  108. Stream size : 99.2 KiB (0%)
  109. Title : Arabic
  110. Language : Arabic
  111. Default : No
  112. Forced : No

  113. Text #6
  114. ID : 8
  115. Format : UTF-8
  116. Codec ID : S_TEXT/UTF8
  117. Codec ID/Info : UTF-8 Plain Text
  118. Duration : 1h 50mn
  119. Bit rate : 62 bps
  120. Count of elements : 1613
  121. Stream size : 50.7 KiB (0%)
  122. Title : Chinese Simplified
  123. Language : Chinese
  124. Default : No
  125. Forced : No

  126. Text #7
  127. ID : 9
  128. Format : UTF-8
  129. Codec ID : S_TEXT/UTF8
  130. Codec ID/Info : UTF-8 Plain Text
  131. Duration : 1h 50mn
  132. Bit rate : 57 bps
  133. Count of elements : 1613
  134. Stream size : 46.6 KiB (0%)
  135. Title : Chinese Traditional
  136. Language : Chinese
  137. Default : No
  138. Forced : No
复制代码

葬礼再聚首4k Ramprasad.Ki.Tehrvi.2021.2160p.电影下载

下载地址: 葬礼再聚首4k.txt (93 Bytes)
回复

使用道具 举报

全部回复2

z0987 发表于 2021-4-28 21:02:47

z0987 沙发

2021-4-28 21:02:47

下載了好像音訊跟影片不同步........差很多~謝謝
回复 支持 反对

使用道具 举报

18520199909 发表于 2021-4-28 22:26:01 Hao4K手机版

18520199909 板凳

2021-4-28 22:26:01

下載了好像音訊跟影片不同步........差很多~謝謝
回复 支持 反对

使用道具 举报

   发表回复

您需要登录后才可以回帖 登录 | 立即注册

返回列表 本版积分规则

  • 在线客服

  • 返回顶部