微博 微信

Hao4K影音

电影频道
电影封面:
片  名: 最后的维米尔4K
电影分类: 剧情 
国  家: 美国 
年  代: 2019年
分 辨 率: 4K(3840x2160)
电影格式: MKV|REMUX 
画质标准: SDR 
音质编码: 其他AAC 
电影声道: 5.1声道 
帧数/FPS: 23.976 帧
电影语言: 英文原版 
资源大小: 18.44 GB
导  演: 丹·弗里德金
豆瓣评分: 6.8 分
中文字幕: /thread-56784-1-1.html
剧情简介: An artist is suspected of selling a valuable painting to the Nazis, but there is more to the story than meets the eye.
琴鸟 / Lyrebird/最后的维米尔4K.The.Last.Vermeer.2019.2160p.WEB-DL.x265.10bit.SDR.AAC5.1-4k电影信息
  1. Video
  2. ID : 1
  3. Format : HEVC
  4. Format/Info : High Efficiency Video Coding
  5. Format profile : Main 10@L5.2@High
  6. Codec ID : V_MPEGH/ISO/HEVC
  7. Duration : 1 h 57 min
  8. Bit rate : 22.0 Mb/s
  9. Width : 3 840 pixels
  10. Height : 2 160 pixels
  11. Display aspect ratio : 16:9
  12. Frame rate mode : Constant
  13. Frame rate : 23.976 (24000/1001) FPS
  14. Color space : YUV
  15. Chroma subsampling : 4:2:0
  16. Bit depth : 10 bits
  17. Bits/(Pixel*Frame) : 0.111
  18. Stream size : 18.1 GiB (98%)
  19. Language : English
  20. Default : Yes
  21. Forced : No
  22. Color range : Full
  23. Color primaries : BT.709
  24. Transfer characteristics : BT.709
  25. Matrix coefficients : BT.709

  26. Audio
  27. ID : 2
  28. Format : AAC LC
  29. Format/Info : Advanced Audio Codec Low Complexity
  30. Codec ID : A_AAC-2
  31. Duration : 1 h 57 min
  32. Bit rate : 384 kb/s
  33. Channel(s) : 6 channels
  34. Channel layout : C L R Ls Rs LFE
  35. Sampling rate : 48.0 kHz
  36. Frame rate : 46.875 FPS (1024 SPF)
  37. Compression mode : Lossy
  38. Stream size : 322 MiB (2%)
  39. Language : English
  40. Default : Yes
  41. Forced : No

  42. Text #1
  43. ID : 3
  44. Format : UTF-8
  45. Codec ID : S_TEXT/UTF8
  46. Codec ID/Info : UTF-8 Plain Text
  47. Duration : 1 h 55 min
  48. Bit rate : 79 b/s
  49. Count of elements : 1582
  50. Stream size : 66.9 KiB (0%)
  51. Language : English
  52. Default : Yes
  53. Forced : No

  54. Text #2
  55. ID : 4
  56. Format : UTF-8
  57. Codec ID : S_TEXT/UTF8
  58. Codec ID/Info : UTF-8 Plain Text
  59. Duration : 1 h 57 min
  60. Bit rate : 72 b/s
  61. Count of elements : 1300
  62. Stream size : 62.2 KiB (0%)
  63. Language : German
  64. Default : No
  65. Forced : No

  66. Text #3
  67. ID : 5
  68. Format : UTF-8
  69. Codec ID : S_TEXT/UTF8
  70. Codec ID/Info : UTF-8 Plain Text
  71. Duration : 1 h 57 min
  72. Bit rate : 70 b/s
  73. Count of elements : 1297
  74. Stream size : 60.8 KiB (0%)
  75. Language : Turkish
  76. Default : No
  77. Forced : No

  78. Text #4
  79. ID : 6
  80. Format : UTF-8
  81. Codec ID : S_TEXT/UTF8
  82. Codec ID/Info : UTF-8 Plain Text
  83. Duration : 1 h 57 min
  84. Bit rate : 68 b/s
  85. Count of elements : 1299
  86. Stream size : 58.5 KiB (0%)
  87. Language : Portuguese
  88. Default : No
  89. Forced : No

  90. Text #5
  91. ID : 7
  92. Format : UTF-8
  93. Codec ID : S_TEXT/UTF8
  94. Codec ID/Info : UTF-8 Plain Text
  95. Duration : 1 h 57 min
  96. Bit rate : 60 b/s
  97. Count of elements : 1211
  98. Stream size : 52.1 KiB (0%)
  99. Language : Dutch
  100. Default : No
  101. Forced : No

  102. Text #6
  103. ID : 8
  104. Format : UTF-8
  105. Codec ID : S_TEXT/UTF8
  106. Codec ID/Info : UTF-8 Plain Text
  107. Duration : 1 h 57 min
  108. Bit rate : 68 b/s
  109. Count of elements : 1292
  110. Stream size : 58.8 KiB (0%)
  111. Language : Italian
  112. Default : No
  113. Forced : No

  114. Text #7
  115. ID : 9
  116. Format : UTF-8
  117. Codec ID : S_TEXT/UTF8
  118. Codec ID/Info : UTF-8 Plain Text
  119. Duration : 1 h 57 min
  120. Bit rate : 71 b/s
  121. Count of elements : 1297
  122. Stream size : 61.3 KiB (0%)
  123. Language : French
  124. Default : No
  125. Forced : No
复制代码

琴鸟 / Lyrebird/最后的维米尔4K.The.Last.Vermeer.2019.2160p.WEB-DL.x265.10bit.SDR.AAC5.1-4K电影下载

最后的维米尔4K.The.Last.Vermeer.2019.2160p.WEB-DL.x265.10bit.SDR.AAC5.1【4K SDR 18.44 GB】
[Hao4K]最后的维米尔4K.The.Last.Vermeer.2019.2160p.WEB-DL.x265.10bit.SDR.AAC5.1-R.torrent (92.87 KB, 售价: 2 K币)
回复

使用道具 举报

   发表回复

您需要登录后才可以回帖 登录 | 立即注册

返回列表 本版积分规则

  • 在线客服

  • 返回顶部