微博 微信

Hao4K影音

电影频道
电影封面:
片  名: 誓约4K
电影分类: 剧情 爱情片 
国  家: 美国 加拿大 
年  代: 2019年
分 辨 率: 4K(3840x2160)
电影格式: MKV|REMUX 
画质标准: SDR 
音质编码: DTS-HD Master Audio 
电影声道: 5.1声道 
帧数/FPS: 23.976 帧
电影语言: 英文原版 
资源大小: 14.78 GB
导  演: 迈克尔·苏克西
豆瓣评分: 7.2 分
中文字幕: /thread-56783-1-1.html
剧情简介: Leo(查宁·塔图姆 Channing Tatum 饰演)和Paige(瑞秋·麦克亚当斯 Rachel McAdams)是一对恩爱的小夫妻。在一个寒冷的冬天,一场车祸使Paige失去了记忆,醒来的她忘记了她曾经深爱的Leo。
  同样深爱Paige的Leo不愿意放弃,努力通过各种方法试图恢复Paige的记忆。他先是说服Paige的父母,让她继续和他在一起生活。同时,他通过各种细节来帮助她回忆。他们的第一次见面,他们最爱去的一家餐馆,还有她的艺术创作。然而失忆了的Paige也失去了创作的灵感,准备像以前一样回去学习法律。更糟糕的是,Paige似乎也准备回到前男友Jeremy(斯科特·斯比德曼 Scott Speedman 饰)的怀抱里。一次次遭遇挫折的Leo似乎看不到一丝让Paige重新爱上他的希望。故事是否也会向悲剧的结局发展?Paige是否又将像她遇见Leo之前一样,放弃艺术去学习她根本不喜欢的法律?在又一个寒冷的冬夜,Leo和Paige的再一次相遇将告诉我们答案。
  影片改编自真实的故事。
爱‧重来(台) / 再说一次我愿意(港) / 爱的誓言 / 海誓/誓约4K.The.Vow.2012.2160p.WEB-DL.x265.10bit.SDR.DTS-HD.MA.5.1-4k电影信息
  1. Video
  2. ID : 1
  3. Format : HEVC
  4. Format/Info : High Efficiency Video Coding
  5. Format profile : Main 10@L5.2@High
  6. Codec ID : V_MPEGH/ISO/HEVC
  7. Duration : 1 h 43 min
  8. Bit rate : 20.6 Mb/s
  9. Width : 3 840 pixels
  10. Height : 2 160 pixels
  11. Display aspect ratio : 16:9
  12. Frame rate mode : Constant
  13. Frame rate : 23.976 (24000/1001) FPS
  14. Color space : YUV
  15. Chroma subsampling : 4:2:0
  16. Bit depth : 10 bits
  17. Bits/(Pixel*Frame) : 0.104
  18. Stream size : 15.0 GiB (89%)
  19. Language : English
  20. Default : Yes
  21. Forced : No
  22. Color range : Full
  23. Color primaries : BT.709
  24. Transfer characteristics : BT.709
  25. Matrix coefficients : BT.709

  26. Audio #1
  27. ID : 2
  28. Format : DTS XLL
  29. Format/Info : Digital Theater Systems
  30. Commercial name : DTS-HD Master Audio
  31. Codec ID : A_DTS
  32. Duration : 1 h 43 min
  33. Bit rate mode : Variable
  34. Bit rate : 2 122 kb/s
  35. Channel(s) : 6 channels
  36. Channel layout : C L R Ls Rs LFE
  37. Sampling rate : 48.0 kHz
  38. Frame rate : 93.750 FPS (512 SPF)
  39. Bit depth : 16 bits
  40. Compression mode : Lossless
  41. Delay relative to video : 3 ms
  42. Stream size : 1.54 GiB (9%)
  43. Title : DTS-HD MA 5.1
  44. Language : English
  45. Default : Yes
  46. Forced : No

  47. Audio #2
  48. ID : 3
  49. Format : AAC LC
  50. Format/Info : Advanced Audio Codec Low Complexity
  51. Codec ID : A_AAC-2
  52. Duration : 1 h 43 min
  53. Bit rate : 384 kb/s
  54. Channel(s) : 6 channels
  55. Channel layout : C L R Ls Rs LFE
  56. Sampling rate : 48.0 kHz
  57. Frame rate : 46.875 FPS (1024 SPF)
  58. Compression mode : Lossy
  59. Stream size : 283 MiB (2%)
  60. Title : AAC 5.1
  61. Language : English
  62. Default : No
  63. Forced : No

  64. Text #1
  65. ID : 4
  66. Format : UTF-8
  67. Codec ID : S_TEXT/UTF8
  68. Codec ID/Info : UTF-8 Plain Text
  69. Duration : 1 h 42 min
  70. Bit rate : 77 b/s
  71. Count of elements : 1604
  72. Stream size : 57.9 KiB (0%)
  73. Language : English
  74. Default : Yes
  75. Forced : No

  76. Text #2
  77. ID : 5
  78. Format : UTF-8
  79. Codec ID : S_TEXT/UTF8
  80. Codec ID/Info : UTF-8 Plain Text
  81. Duration : 1 h 42 min
  82. Bit rate : 81 b/s
  83. Count of elements : 1729
  84. Stream size : 61.4 KiB (0%)
  85. Title : SDH
  86. Language : English
  87. Default : No
  88. Forced : No

  89. Text #3
  90. ID : 6
  91. Format : UTF-8
  92. Codec ID : S_TEXT/UTF8
  93. Codec ID/Info : UTF-8 Plain Text
  94. Duration : 1 h 42 min
  95. Bit rate : 60 b/s
  96. Count of elements : 1318
  97. Stream size : 45.9 KiB (0%)
  98. Language : French
  99. Default : No
  100. Forced : No

  101. Text #4
  102. ID : 7
  103. Format : UTF-8
  104. Codec ID : S_TEXT/UTF8
  105. Codec ID/Info : UTF-8 Plain Text
  106. Duration : 1 h 39 min
  107. Bit rate : 57 b/s
  108. Count of elements : 1180
  109. Stream size : 42.0 KiB (0%)
  110. Language : Dutch
  111. Default : No
  112. Forced : No

  113. Menu
  114. 00:00:00.000 : Chapter 1
  115. 00:05:52.227 : Chapter 2
  116. 00:12:29.374 : Chapter 3
  117. 00:19:11.692 : Chapter 4
  118. 00:24:05.069 : Chapter 5
  119. 00:30:17.607 : Chapter 6
  120. 00:35:57.614 : Chapter 7
  121. 00:40:13.786 : Chapter 8
  122. 00:46:33.833 : Chapter 9
  123. 00:52:19.762 : Chapter 10
  124. 00:59:32.569 : Chapter 11
  125. 01:05:19.415 : Chapter 12
  126. 01:11:59.815 : Chapter 13
  127. 01:20:39.501 : Chapter 14
  128. 01:29:02.963 : Chapter 15
  129. 01:34:14.774 : Chapter 16
复制代码

爱‧重来(台) / 再说一次我愿意(港) / 爱的誓言 / 海誓/誓约4K.The.Vow.2012.2160p.WEB-DL.x265.10bit.SDR.DTS-HD.MA.5.1-4K电影下载

誓约4K.The.Vow.2012.2160p.WEB-DL.x265.10bit.SDR.DTS-HD.MA.5.1【4K SDR  16.78 GB】
[Hao4K]誓约4K.The.Vow.2012.2160p.WEB-DL.x265.10bit.SDR.DTS-HD.MA.5.1-SWTYBLZ.torrent (84.55 KB, 售价: 2 K币)
回复

使用道具 举报

   发表回复

您需要登录后才可以回帖 登录 | 立即注册

返回列表 本版积分规则

  • 在线客服

  • 返回顶部