微博 微信

Hao4K影音

电影频道
电影封面:
片  名: 偷渡者4k
电影分类: 科幻 惊悚 剧情 
国  家: 美国 德国 
年  代: 2021年
分 辨 率: 4K(3840x2160)
电影格式: MKV|REMUX 
画质标准: 其他 
音质编码: 其他DD 
电影声道: 5.1声道 
帧数/FPS: 24.000 帧
电影语言: 英文原版 
资源大小: 13 GB
导  演: 乔·佩那
豆瓣评分: 5.3 分
中文字幕: -
剧情简介: 一艘宇宙飞船前往火星,起飞不久后机组成员却发现了一个偷渡者。由于这艘飞船的装备只能支持三名乘客,而且它的生命支持系统也受到了一些无法弥补的损害,机组成员们面临着一个不可能解决的问题。
偷渡者4k Stowaway.2021.2160p电影信息
  1. Video
  2. ID : 1
  3. Format : HEVC
  4. Format/Info : High Efficiency Video Coding
  5. Format profile : [email protected]@Main
  6. Codec ID : V_MPEGH/ISO/HEVC
  7. Duration : 1h 57mn
  8. Bit rate : 14.7 Mbps
  9. Width : 3 840 pixels
  10. Height : 2 160 pixels
  11. Display aspect ratio : 16:9
  12. Frame rate mode : Constant
  13. Frame rate : 24.000 fps
  14. Standard : NTSC
  15. Color space : YUV
  16. Chroma subsampling : 4:2:0
  17. Bit depth : 8 bits
  18. Bits/(Pixel*Frame) : 0.074
  19. Stream size : 12.0 GiB (92%)
  20. Default : Yes
  21. Forced : No
  22. Color range : Limited
  23. Color primaries : BT.709
  24. Transfer characteristics : BT.709
  25. Matrix coefficients : BT.709

  26. Audio #1
  27. ID : 2
  28. Format : E-AC-3
  29. Format/Info : Audio Coding 3
  30. Format settings, Endianness : Big
  31. Codec ID : A_EAC3
  32. Duration : 1h 57mn
  33. Bit rate mode : Constant
  34. Bit rate : 640 Kbps
  35. Channel(s) : 6 channels
  36. Channel positions : Front: L C R, Side: L R, LFE
  37. Sampling rate : 48.0 KHz
  38. Frame rate : 187.500 fps (256 spf)
  39. Compression mode : Lossy
  40. Stream size : 536 MiB (4%)
  41. Title : Hindi
  42. Language : Hindi
  43. Default : Yes
  44. Forced : No

  45. Audio #2
  46. ID : 3
  47. Format : E-AC-3
  48. Format/Info : Audio Coding 3
  49. Format settings, Endianness : Big
  50. Codec ID : A_EAC3
  51. Duration : 1h 57mn
  52. Bit rate mode : Constant
  53. Bit rate : 640 Kbps
  54. Channel(s) : 6 channels
  55. Channel positions : Front: L C R, Side: L R, LFE
  56. Sampling rate : 48.0 KHz
  57. Frame rate : 187.500 fps (256 spf)
  58. Compression mode : Lossy
  59. Stream size : 536 MiB (4%)
  60. Title : English
  61. Language : English
  62. Default : No
  63. Forced : No

  64. Text #1
  65. ID : 4
  66. Format : UTF-8
  67. Codec ID : S_TEXT/UTF8
  68. Codec ID/Info : UTF-8 Plain Text
  69. Duration : 1h 46mn
  70. Bit rate : 65 bps
  71. Count of elements : 1150
  72. Stream size : 51.2 KiB (0%)
  73. Title : English
  74. Language : English
  75. Default : No
  76. Forced : No

  77. Text #2
  78. ID : 5
  79. Format : UTF-8
  80. Codec ID : S_TEXT/UTF8
  81. Codec ID/Info : UTF-8 Plain Text
  82. Duration : 1h 46mn
  83. Bit rate : 65 bps
  84. Count of elements : 1150
  85. Stream size : 51.2 KiB (0%)
  86. Title : English
  87. Language : English
  88. Default : No
  89. Forced : No
复制代码

偷渡者4k Stowaway.2021.2160p电影下载
下载地址: 偷渡者4k.txt (89 Bytes)
回复

使用道具 举报

全部回复10

ywf6168 发表于 2021-4-28 10:59:26

ywf6168 沙发

2021-4-28 10:59:26

谢谢楼主发片
回复 支持 反对

使用道具 举报

农夫舅舅 发表于 2021-4-28 12:09:22

农夫舅舅 板凳

2021-4-28 12:09:22

谢谢分享
回复 支持 反对

使用道具 举报

angel1454 发表于 2021-4-28 13:21:54

angel1454 地板

2021-4-28 13:21:54

有中文字幕吗
回复 支持 反对

使用道具 举报

littletart 发表于 2021-4-29 13:06:44

littletart 5#

2021-4-29 13:06:44


谢谢楼主
回复 支持 反对

使用道具 举报

WMTD-TBJT 发表于 2021-4-29 13:13:35

WMTD-TBJT 6#

2021-4-29 13:13:35

非常感谢
回复 支持 反对

使用道具 举报

lvhai81 发表于 2021-4-29 16:41:37

lvhai81 7#

2021-4-29 16:41:37

谢谢楼主分享
回复 支持 反对

使用道具 举报

arsun 发表于 2021-4-29 21:00:13

arsun 8#

2021-4-29 21:00:13



谢谢楼主分享
回复 支持 反对

使用道具 举报

mikego1969 发表于 2021-4-29 21:40:41

mikego1969 9#

2021-4-29 21:40:41

谢谢楼主分享!!!
回复 支持 反对

使用道具 举报

tommy_fzw 发表于 2021-4-29 22:57:40

tommy_fzw 10#

2021-4-29 22:57:40

谢谢分享,辛苦了!
回复 支持 反对

使用道具 举报

zzol 发表于 2021-4-30 01:37:06

zzol 11#

2021-4-30 01:37:06

谢谢分享,可惜还没有合适的字幕
回复 支持 反对

使用道具 举报

   发表回复

您需要登录后才可以回帖 登录 | 立即注册

返回列表 本版积分规则

  • 在线客服

  • 返回顶部