微博 微信

Hao4K影音

电影频道
电影封面:
片  名: 鬼娘子2 4k
电影分类: 恐怖 喜剧 
国  家: 印度 
年  代: 2021年
分 辨 率: 4K(3840x2160)
电影格式: MKV|REMUX 
画质标准: 其他 
音质编码: Dolby Digital Plus Audio 
电影声道: 5.1声道 
帧数/FPS: 24.000 帧
电影语言: 无字幕 
资源大小: 17.4 GB
导  演: Hardik Mehta
豆瓣评分: 4.2 分
中文字幕: -
剧情简介: Janhvi Kapoor has begun shooting for the horror-comedy Roohi Afza, in which she stars alongside Rajkummar Rao and Varun Sharma.
鬼娘子2 4k Roohi 2021 2160p电影信息
  1. Video
  2. ID : 1
  3. Format : AVC
  4. Format/Info : Advanced Video Codec
  5. Format profile : [email protected]
  6. Format settings : CABAC / 4 Ref Frames
  7. Format settings, CABAC : Yes
  8. Format settings, Reference frames : 4 frames
  9. Format settings, GOP : M=4, N=48
  10. Codec ID : V_MPEG4/ISO/AVC
  11. Duration : 2 h 14 min
  12. Bit rate : 18.0 Mb/s
  13. Width : 3 840 pixels
  14. Height : 1 616 pixels
  15. Display aspect ratio : 2.40:1
  16. Frame rate mode : Constant
  17. Frame rate : 24.000 FPS
  18. Color space : YUV
  19. Chroma subsampling : 4:2:0
  20. Bit depth : 8 bits
  21. Scan type : Progressive
  22. Bits/(Pixel*Frame) : 0.121
  23. Stream size : 16.8 GiB (97%)
  24. Title : MovieAIO.us
  25. Writing library : x264 core 138
  26. Encoding settings : cabac=1 / ref=4 / deblock=1:0:0 / analyse=0x3:0x133 / me=umh / subme=9 / psy=1 / psy_rd=1.00:0.00 / mixed_ref=1 / me_range=16 / chroma_me=1 / trellis=2 / 8x8dct=1 / cqm=0 / deadzone=21,11 / fast_pskip=1 / chroma_qp_offset=-2 / threads=4 / lookahead_threads=1 / sliced_threads=0 / nr=0 / decimate=1 / interlaced=0 / bluray_compat=0 / constrained_intra=0 / bframes=3 / b_pyramid=0 / b_adapt=2 / b_bias=0 / direct=3 / weightb=1 / open_gop=0 / weightp=2 / keyint=48 / keyint_min=4 / scenecut=0 / intra_refresh=0 / rc_lookahead=48 / rc=abr / mbtree=1 / bitrate=18000 / ratetol=1.0 / qcomp=0.60 / qpmin=0 / qpmax=69 / qpstep=4 / vbv_maxrate=25200 / vbv_bufsize=36000 / nal_hrd=none / filler=0 / ip_ratio=1.40 / aq=1:1.00
  27. Default : Yes
  28. Forced : No

  29. Audio
  30. ID : 2
  31. Format : E-AC-3
  32. Format/Info : Enhanced AC-3
  33. Commercial name : Dolby Digital Plus
  34. Codec ID : A_EAC3
  35. Duration : 2 h 13 min
  36. Bit rate mode : Constant
  37. Bit rate : 640 kb/s
  38. Channel(s) : 6 channels
  39. Channel layout : L R C LFE Ls Rs
  40. Sampling rate : 48.0 kHz
  41. Frame rate : 31.250 FPS (1536 SPF)
  42. Compression mode : Lossy
  43. Delay relative to video : -42 ms
  44. Stream size : 611 MiB (3%)
  45. Title : MovieAIO.us
  46. Language : Hindi
  47. Service kind : Complete Main
  48. Default : Yes
  49. Forced : No

  50. Text
  51. ID : 3
  52. Format : UTF-8
  53. Codec ID : S_TEXT/UTF8
  54. Codec ID/Info : UTF-8 Plain Text
  55. Duration : 2 h 8 min
  56. Bit rate : 47 b/s
  57. Count of elements : 1506
  58. Stream size : 44.7 KiB (0%)
  59. Title : MovieAIO.us
  60. Language : English
  61. Default : Yes
  62. Forced : No
复制代码

鬼娘子2 4k Roohi 2021 2160p电影下载
下载地址: 鬼娘子24k.txt (91 Bytes)
回复

使用道具 举报

全部回复4

ywf6168 发表于 2021-4-28 10:57:19

ywf6168 沙发

2021-4-28 10:57:19

谢谢楼主发片
回复 支持 反对

使用道具 举报

康城大叔 发表于 2021-4-28 16:35:34

康城大叔 板凳

2021-4-28 16:35:34

没有中文吗?
回复 支持 反对

使用道具 举报

littletart 发表于 2021-4-29 13:05:18

littletart 地板

2021-4-29 13:05:18


谢谢楼主
回复 支持 反对

使用道具 举报

tommy_fzw 发表于 2021-4-29 22:58:34

tommy_fzw 5#

2021-4-29 22:58:34

谢谢分享,辛苦了!
回复 支持 反对

使用道具 举报

   发表回复

您需要登录后才可以回帖 登录 | 立即注册

返回列表 本版积分规则

  • 在线客服

  • 返回顶部