微博 微信

Hao4K影音

电影频道
电影封面:
片  名: Fandom: Live In The Uk 4K
电影分类: 其他 
国  家: 其他 
年  代: 2020年
分 辨 率: 4K(3840x2160)
电影格式: MKV|REMUX 
画质标准: 其他 
音质编码: 其他AAC 
电影声道: 其他 
帧数/FPS: 23.976 帧
电影语言: 英文原版 
资源大小: 6.69 GB
导  演: 表演者: Waterparks
豆瓣评分:
中文字幕: -
剧情简介: 曲目 简介
1 Cherry Red [Live]
2 Watch What Happens Next [Live]
3 Blonde [Live]
4 Dream Boy [Live]
5 Double Dare [Live]
6 High Definition [Live]
7 Worst [Live]
8 War Crimes [Live] (Feat De\'wayne)
9 [Reboot] [Live]
10 Easy to Hate [Live]
11 Lucky People [Live]
12 21 Questions [Live]
13 Group Chat [Live]
14 I Miss Having Sex But at Least I Don\'t Wanna Die Anymore [Live]
15 Zone Out [Live]
16 I Felt Younger When We Met [Live]
17 Entertainment [Live]
18 Stupid for You [Live]
19 Turbulent [Live]
Fandom.Live.In.The.UK.2020.2160p.WEBRip.x265-4K专辑破解信息
  1. Video
  2. ID : 1
  3. Format : HEVC
  4. Format/Info : High Efficiency Video Coding
  5. Format profile : Main@L5.1@High
  6. Codec ID : V_MPEGH/ISO/HEVC
  7. Duration : 1 h 31 min
  8. Bit rate : 10.3 Mb/s
  9. Width : 3 840 pixels
  10. Height : 1 916 pixels
  11. Display aspect ratio : 2.004
  12. Frame rate mode : Constant
  13. Frame rate : 23.976 (24000/1001) FPS
  14. Color space : YUV
  15. Chroma subsampling : 4:2:0
  16. Bit depth : 8 bits
  17. Bits/(Pixel*Frame) : 0.058
  18. Stream size : 6.57 GiB (98%)
  19. Writing library : x265 3.4+36-5239276dd:[Windows][MSVC 1900][64 bit] 8bit

  20. Default : Yes
  21. Forced : No
  22. Color range : Limited
  23. Color primaries : BT.709
  24. Transfer characteristics : BT.709
  25. Matrix coefficients : BT.709

  26. Audio
  27. ID : 2
  28. Format : AAC LC
  29. Format/Info : Advanced Audio Codec Low Complexity
  30. Codec ID : A_AAC-2
  31. Duration : 1 h 31 min
  32. Bit rate : 192 kb/s
  33. Channel(s) : 2 channels
  34. Channel layout : L R
  35. Sampling rate : 48.0 kHz
  36. Frame rate : 46.875 FPS (1024 SPF)
  37. Compression mode : Lossy
  38. Stream size : 128 MiB (2%)
  39. Language : English
  40. Default : Yes
  41. Forced : No

  42. 1 Cherry Red [Live]
  43. 2 Watch What Happens Next [Live]
  44. 3 Blonde [Live]
  45. 4 Dream Boy [Live]
  46. 5 Double Dare [Live]
  47. 6 High Definition [Live]
  48. 7 Worst [Live]
  49. 8 War Crimes [Live] (Feat De'wayne)
  50. 9 [Reboot] [Live]
  51. 10 Easy to Hate [Live]
  52. 11 Lucky People [Live]
  53. 12 21 Questions [Live]
  54. 13 Group Chat [Live]
  55. 14 I Miss Having Sex But at Least I Don't Wanna Die Anymore [Live]
  56. 15 Zone Out [Live]
  57. 16 I Felt Younger When We Met [Live]
  58. 17 Entertainment [Live]
  59. 18 Stupid for You [Live]
  60. 19 Turbulent [Live]
复制代码
Fandom.Live.In.The.UK.2020.2160p.WEBRip.x265-4K专辑下载
Fandom.Live.In.The.UK.2020.2160p.WEBRip.x265.torrent (34.13 KB, 售价: 2 K币)
回复

使用道具 举报

全部回复17

johnmoo 发表于 2021-4-28 16:49:24

johnmoo 沙发

2021-4-28 16:49:24

这是啥啊?
回复 支持 反对

使用道具 举报

dragon_walk 发表于 2021-4-28 17:28:38

dragon_walk 板凳

2021-4-28 17:28:38

啥种类的?有看过的吗
回复 支持 反对

使用道具 举报

Ken_Zhao 发表于 2021-4-28 20:14:14

Ken_Zhao 地板

2021-4-28 20:14:14

都是很不错的资源,多谢分享!
回复 支持 反对

使用道具 举报

aftok123 发表于 2021-4-28 21:25:04

aftok123 5#

2021-4-28 21:25:04

是什么类型的片子啊
回复 支持 反对

使用道具 举报

yale 发表于 2021-4-28 21:56:45

yale 6#

2021-4-28 21:56:45

谢谢分享
回复 支持 反对

使用道具 举报

mccliqiang 发表于 2021-4-28 22:48:43

mccliqiang 7#

2021-4-28 22:48:43

能否找到字幕,谢谢分享
回复 支持 反对

使用道具 举报

18696985198 发表于 2021-4-29 09:05:35

18696985198 8#

2021-4-29 09:05:35

4K画面的音乐CD?
回复 支持 反对

使用道具 举报

于亮 发表于 2021-4-29 09:24:06

于亮 9#

2021-4-29 09:24:06

谢谢哪.好资源
回复 支持 反对

使用道具 举报

winc4532 发表于 2021-4-29 11:29:23

winc4532 10#

2021-4-29 11:29:23

世爵39 发表于 2021-4-29 08:28
是什么类型的片子啊???

live show
回复 支持 反对

使用道具 举报

上游68 发表于 2021-4-29 11:29:39

上游68 11#

2021-4-29 11:29:39

MTV吗?不贵,下来看看
回复 支持 反对

使用道具 举报

ywf6168 发表于 2021-4-29 11:55:56

ywf6168 12#

2021-4-29 11:55:56

多谢分享!
回复 支持 反对

使用道具 举报

xxw8888 发表于 2021-4-29 11:57:33

xxw8888 13#

2021-4-29 11:57:33


谢谢.好资源
回复 支持 反对

使用道具 举报

loushunming 发表于 2021-4-29 20:38:57

loushunming 14#

2021-4-29 20:38:57

观看接下来会发生什么
回复 支持 反对

使用道具 举报

lizx1359 发表于 2021-4-29 20:55:15

lizx1359 15#

2021-4-29 20:55:15

WaterParks乐队的Live,朋克乐队。
回复 支持 反对

使用道具 举报

iamxaingkong 发表于 2021-4-29 22:40:50

iamxaingkong 16#

2021-4-29 22:40:50

谢谢分享这么好的资源
回复 支持 反对

使用道具 举报

andywjhh 发表于 2021-4-30 14:52:45

andywjhh 17#

2021-4-30 14:52:45

好资源很给力
回复 支持 反对

使用道具 举报

r_sheng 发表于 2021-5-1 21:48:19

r_sheng 18#

2021-5-1 21:48:19

演唱会吗?
回复 支持 反对

使用道具 举报

   发表回复

您需要登录后才可以回帖 登录 | 立即注册

返回列表 本版积分规则

  • 在线客服

  • 返回顶部