微博 微信

Hao4K影音

电影频道
电影封面:
片  名: 小混混五专巡演电影4k
电影分类: 纪录片 传记 歌舞 
国  家: 英国 
年  代: 2020年
分 辨 率: 4K(3840x2160)
电影格式: MKV|REMUX 
画质标准: 其他 
音质编码: Dolby Digital Audio 
电影声道: 5.1声道 其他 
帧数/FPS: 25.000 帧
电影语言: 英文原版 
资源大小: 10.47 GB
导  演: Laurence Warder
豆瓣评分: 8.7 分
中文字幕: -
剧情简介: Following the release of their fifth studio album \'LM5\', Perrie Edwards, Jesy Nelson, Leigh-Anne Pinnock and Jade Thirlwall embarked on \'LM5 The Tour\' in 2019, taking in 40 arenas across Europe, including Spain, Italy, Germany, Netherlands, Belgium, France, UK and Ireland. They sold over 400,000 tickets including an almighty 5 sold out shows at the 02 London. This film was recorded at the final show of the tour at London\'s iconic 02 arena. In a career spanning set of nineteen songs the group perform hits such as \'Shout Out to My Ex\', \'Woman Like Me\', \'Wings\' and \'Touch\' to a crowd of over 15,000. Featuring surprise guest appearances from London legend Stormzy on \'Power\' and long-term collaborator Kamille on \'More Than Words\'.
小混混五专巡演电影4k  Little.Mix.LM5.The.Tour.Film.2019.2160p.纪录片信息
  1. Video
  2. ID : 1
  3. Format : HEVC
  4. Format/Info : High Efficiency Video Coding
  5. Format profile : Main@L5.1@High
  6. Codec ID : V_MPEGH/ISO/HEVC
  7. Duration : 1 h 37 min
  8. Bit rate : 15.0 Mb/s
  9. Width : 3 840 pixels
  10. Height : 1 628 pixels
  11. Display aspect ratio : 2.35:1
  12. Frame rate mode : Constant
  13. Frame rate : 25.000 FPS
  14. Color space : YUV
  15. Chroma subsampling : 4:2:0
  16. Bit depth : 8 bits
  17. Bits/(Pixel*Frame) : 0.096
  18. Stream size : 10.2 GiB (97%)
  19. Writing library : x265 3.5+9-bf91444e0:[Windows][MSVC 1900][64 bit] 8bit
  20. Encoding settings : cpuid=1111039 / frame-threads=5 / numa-pools=32 / wpp / no-pmode / no-pme / no-psnr / no-ssim / log-level=2 / input-csp=1 / input-res=3840x1628 / interlace=0 / total-frames=164056 / level-idc=51 / high-tier=1 / uhd-bd=0 / ref=4 / no-allow-non-conformance / repeat-headers / annexb / aud / no-eob / no-eos / hrd / info / hash=0 / no-temporal-layers / no-open-gop / min-keyint=25 / keyint=250 / gop-lookahead=0 / bframes=4 / b-adapt=2 / b-pyramid / bframe-bias=0 / rc-lookahead=25 / lookahead-slices=4 / scenecut=40 / hist-scenecut=0 / radl=0 / no-splice / no-intra-refresh / ctu=64 / min-cu-size=8 / rect / no-amp / max-tu-size=32 / tu-inter-depth=1 / tu-intra-depth=1 / limit-tu=0 / rdoq-level=2 / dynamic-rd=0.00 / no-ssim-rd / signhide / no-tskip / nr-intra=0 / nr-inter=0 / no-constrained-intra / no-strong-intra-smoothing / max-merge=3 / limit-refs=3 / limit-modes / me=3 / subme=3 / merange=57 / temporal-mvp / no-frame-dup / no-hme / weightp / no-weightb / no-analyze-src-pics / deblock=-3:-3 / no-sao / no-sao-non-deblock / rd=4 / selective-sao=0 / no-early-skip / rskip / no-fast-intra / no-tskip-fast / no-cu-lossless / no-b-intra / no-splitrd-skip / rdpenalty=0 / psy-rd=2.00 / psy-rdoq=1.00 / no-rd-refine / no-lossless / cbqpoffs=0 / crqpoffs=0 / rc=crf / crf=19.0 / qcomp=0.60 / qpstep=4 / stats-write=0 / stats-read=0 / vbv-maxrate=160000 / vbv-bufsize=160000 / vbv-init=0.9 / min-vbv-fullness=50.0 / max-vbv-fullness=80.0 / crf-max=0.0 / crf-min=0.0 / ipratio=1.40 / pbratio=1.30 / aq-mode=2 / aq-strength=1.00 / cutree / zone-count=0 / no-strict-cbr / qg-size=32 / no-rc-grain / qpmax=69 / qpmin=0 / no-const-vbv / sar=1 / overscan=0 / videoformat=5 / range=0 / colorprim=1 / transfer=1 / colormatrix=1 / chromaloc=0 / display-window=0 / cll=0,0 / min-luma=0 / max-luma=255 / log2-max-poc-lsb=8 / vui-timing-info / vui-hrd-info / slices=1 / no-opt-qp-pps / no-opt-ref-list-length-pps / no-multi-pass-opt-rps / scenecut-bias=0.05 / hist-threshold=0.03 / no-opt-cu-delta-qp / no-aq-motion / no-hdr10 / no-hdr10-opt / no-dhdr10-opt / no-idr-recovery-sei / analysis-reuse-level=0 / analysis-save-reuse-level=0 / analysis-load-reuse-level=0 / scale-factor=0 / refine-intra=0 / refine-inter=0 / refine-mv=1 / refine-ctu-distortion=0 / no-limit-sao / ctu-info=0 / no-lowpass-dct / refine-analysis-type=0 / copy-pic=1 / max-ausize-factor=1.0 / no-dynamic-refine / no-single-sei / no-hevc-aq / no-svt / no-field / qp-adaptation-range=1.00 / scenecut-aware-qp=0conformance-window-offsets / right=0 / bottom=0 / decoder-max-rate=0 / no-vbv-live-multi-pass
  21. Default : Yes
  22. Forced : No
  23. Color range : Limited
  24. Color primaries : BT.709
  25. Transfer characteristics : BT.709
  26. Matrix coefficients : BT.709

  27. Audio
  28. ID : 2
  29. Format : AC-3
  30. Format/Info : Audio Coding 3
  31. Commercial name : Dolby Digital
  32. Codec ID : A_AC3
  33. Duration : 1 h 37 min
  34. Bit rate mode : Constant
  35. Bit rate : 384 kb/s
  36. Channel(s) : 6 channels
  37. Channel layout : L R C LFE Ls Rs
  38. Sampling rate : 48.0 kHz
  39. Frame rate : 31.250 FPS (1536 SPF)
  40. Compression mode : Lossy
  41. Stream size : 268 MiB (2%)
  42. Language : English
  43. Service kind : Complete Main
  44. Default : Yes
  45. Forced : No
复制代码


小混混五专巡演电影4k  Little.Mix.LM5.The.Tour.Film.2019.2160p.纪录片下载
[Hao4k]小混混五专巡演电影4k Little.Mix.LM5.The.Tour.Film.2019.2160p.WEBRip.x265-.torrent (53 KB)
回复

使用道具 举报

全部回复12

Ken_Zhao 发表于 2021-4-28 20:13:56

Ken_Zhao 沙发

2021-4-28 20:13:56

很喜欢这个组合!多谢分享啦
回复 支持 反对

使用道具 举报

aftok123 发表于 2021-4-28 21:29:18

aftok123 板凳

2021-4-28 21:29:18

免费的 感谢 下来看看
回复 支持 反对

使用道具 举报

yale 发表于 2021-4-28 21:56:18

yale 地板

2021-4-28 21:56:18

谢谢分享
回复 支持 反对

使用道具 举报

jintao7863 发表于 2021-4-29 17:20:53

jintao7863 5#

2021-4-29 17:20:53

下来看看
回复 支持 反对

使用道具 举报

pc586 发表于 2021-4-29 22:44:42

pc586 6#

2021-4-29 22:44:42

谢谢分享
回复 支持 反对

使用道具 举报

lqsong 发表于 2021-4-30 08:11:57

lqsong 7#

2021-4-30 08:11:57

谢谢分享!
回复 支持 反对

使用道具 举报

勇往直前168 发表于 2021-4-30 09:01:45

勇往直前168 8#

2021-4-30 09:01:45

谢谢分享
回复 支持 反对

使用道具 举报

zengzzs 发表于 2021-4-30 09:03:58

zengzzs 9#

2021-4-30 09:03:58

这个支持了,喜欢,感谢分享
回复 支持 反对

使用道具 举报

andywjhh 发表于 2021-4-30 14:54:36

andywjhh 10#

2021-4-30 14:54:36

好资源很给力
回复 支持 反对

使用道具 举报

legendyca 发表于 2021-5-1 11:06:34

legendyca 11#

2021-5-1 11:06:34

感谢分享
回复 支持 反对

使用道具 举报

704562443 发表于 2021-5-6 22:09:10 Hao4K手机版

704562443 12#

2021-5-6 22:09:10

感谢楼主分享不 错,谢谢分享
回复 支持 反对

使用道具 举报

like117 发表于 5 天前

like117 13#

5 天前

谢谢楼主分享
回复 支持 反对

使用道具 举报

   发表回复

您需要登录后才可以回帖 登录 | 立即注册

返回列表 本版积分规则

  • 在线客服

  • 返回顶部