微博 微信

Hao4K影音

电影频道
电影封面:
片  名: Nick.Masons.Saucerful.of.Secrets.Live.at.the.Roundhouse.2019 4k
电影分类: 其他 
国  家: 美国 
年  代: 2020年
分 辨 率: 4K(3840x2160)
电影格式: MKV|REMUX 
画质标准: 其他 
音质编码: Dolby Digital Audio 
电影声道: 其他 
帧数/FPS: 23.976 帧
电影语言: 英文原版 
资源大小: 12.19 GB
导  演: Nick Mason\'s Saucerful Of Secrets
豆瓣评分:
中文字幕: -
剧情简介: -
Nick.Masons.Saucerful.of.Secrets.Live.at.the.Roundhouse.2019.2160p.WEBRip.x265信息
  1. Video
  2. ID : 1
  3. Format : HEVC
  4. Format/Info : High Efficiency Video Coding
  5. Format profile : Main@L5.1@High
  6. Codec ID : V_MPEGH/ISO/HEVC
  7. Duration : 1 h 55 min
  8. Bit rate : 14.7 Mb/s
  9. Width : 3 840 pixels
  10. Height : 1 600 pixels
  11. Display aspect ratio : 2.40:1
  12. Frame rate mode : Constant
  13. Frame rate : 23.976 (24000/1001) FPS
  14. Color space : YUV
  15. Chroma subsampling : 4:2:0
  16. Bit depth : 8 bits
  17. Bits/(Pixel*Frame) : 0.100
  18. Stream size : 11.9 GiB (97%)
  19. Writing library : x265 3.5+9-bf91444e0:[Windows][MSVC 1900][64 bit] 8bit
  20. Encoding settings : cpuid=1111039 / frame-threads=4 / numa-pools=16 / wpp / no-pmode / no-pme / no-psnr / no-ssim / log-level=2 / input-csp=1 / input-res=3840x1600 / interlace=0 / total-frames=207978 / level-idc=51 / high-tier=1 / uhd-bd=0 / ref=4 / no-allow-non-conformance / repeat-headers / annexb / aud / no-eob / no-eos / hrd / info / hash=0 / no-temporal-layers / no-open-gop / min-keyint=23 / keyint=250 / gop-lookahead=0 / bframes=4 / b-adapt=2 / b-pyramid / bframe-bias=0 / rc-lookahead=25 / lookahead-slices=4 / scenecut=40 / hist-scenecut=0 / radl=0 / no-splice / no-intra-refresh / ctu=64 / min-cu-size=8 / rect / no-amp / max-tu-size=32 / tu-inter-depth=1 / tu-intra-depth=1 / limit-tu=0 / rdoq-level=2 / dynamic-rd=0.00 / no-ssim-rd / signhide / no-tskip / nr-intra=0 / nr-inter=0 / no-constrained-intra / no-strong-intra-smoothing / max-merge=3 / limit-refs=3 / limit-modes / me=3 / subme=3 / merange=57 / temporal-mvp / no-frame-dup / no-hme / weightp / no-weightb / no-analyze-src-pics / deblock=-3:-3 / no-sao / no-sao-non-deblock / rd=4 / selective-sao=0 / no-early-skip / rskip / no-fast-intra / no-tskip-fast / no-cu-lossless / no-b-intra / no-splitrd-skip / rdpenalty=0 / psy-rd=2.00 / psy-rdoq=1.00 / no-rd-refine / no-lossless / cbqpoffs=0 / crqpoffs=0 / rc=crf / crf=17.0 / qcomp=0.60 / qpstep=4 / stats-write=0 / stats-read=0 / vbv-maxrate=160000 / vbv-bufsize=160000 / vbv-init=0.9 / min-vbv-fullness=50.0 / max-vbv-fullness=80.0 / crf-max=0.0 / crf-min=0.0 / ipratio=1.40 / pbratio=1.30 / aq-mode=2 / aq-strength=1.00 / cutree / zone-count=0 / no-strict-cbr / qg-size=32 / no-rc-grain / qpmax=69 / qpmin=0 / no-const-vbv / sar=1 / overscan=0 / videoformat=5 / range=0 / colorprim=1 / transfer=1 / colormatrix=1 / chromaloc=0 / display-window=0 / cll=0,0 / min-luma=0 / max-luma=255 / log2-max-poc-lsb=8 / vui-timing-info / vui-hrd-info / slices=1 / no-opt-qp-pps / no-opt-ref-list-length-pps / no-multi-pass-opt-rps / scenecut-bias=0.05 / hist-threshold=0.03 / no-opt-cu-delta-qp / no-aq-motion / no-hdr10 / no-hdr10-opt / no-dhdr10-opt / no-idr-recovery-sei / analysis-reuse-level=0 / analysis-save-reuse-level=0 / analysis-load-reuse-level=0 / scale-factor=0 / refine-intra=0 / refine-inter=0 / refine-mv=1 / refine-ctu-distortion=0 / no-limit-sao / ctu-info=0 / no-lowpass-dct / refine-analysis-type=0 / copy-pic=1 / max-ausize-factor=1.0 / no-dynamic-refine / no-single-sei / no-hevc-aq / no-svt / no-field / qp-adaptation-range=1.00 / scenecut-aware-qp=0conformance-window-offsets / right=0 / bottom=0 / decoder-max-rate=0 / no-vbv-live-multi-pass
  21. Default : Yes
  22. Forced : No
  23. Color range : Limited
  24. Color primaries : BT.709
  25. Transfer characteristics : BT.709
  26. Matrix coefficients : BT.709

  27. Audio
  28. ID : 2
  29. Format : AC-3
  30. Format/Info : Audio Coding 3
  31. Commercial name : Dolby Digital
  32. Codec ID : A_AC3
  33. Duration : 1 h 55 min
  34. Bit rate mode : Constant
  35. Bit rate : 384 kb/s
  36. Channel(s) : 6 channels
  37. Channel layout : L R C LFE Ls Rs
  38. Sampling rate : 48.0 kHz
  39. Frame rate : 31.250 FPS (1536 SPF)
  40. Compression mode : Lossy
  41. Stream size : 318 MiB (3%)
  42. Title : -1722
  43. Language : English
  44. Service kind : Complete Main
  45. Default : Yes
  46. Forced : No

  47. Text #1
  48. ID : 3
  49. Format : UTF-8
  50. Codec ID : S_TEXT/UTF8
  51. Codec ID/Info : UTF-8 Plain Text
  52. Duration : 1 h 55 min
  53. Bit rate : 32 b/s
  54. Count of elements : 819
  55. Stream size : 27.4 KiB (0%)
  56. Title : -1722
  57. Language : English
  58. Default : No
  59. Forced : No

  60. Text #2
  61. ID : 4
  62. Format : UTF-8
  63. Codec ID : S_TEXT/UTF8
  64. Codec ID/Info : UTF-8 Plain Text
  65. Duration : 1 h 55 min
  66. Bit rate : 11 b/s
  67. Count of elements : 272
  68. Stream size : 9.57 KiB (0%)
  69. Title : -1722
  70. Language : Dutch
  71. Default : No
  72. Forced : No

  73. Text #3
  74. ID : 5
  75. Format : UTF-8
  76. Codec ID : S_TEXT/UTF8
  77. Codec ID/Info : UTF-8 Plain Text
  78. Duration : 1 h 55 min
  79. Bit rate : 13 b/s
  80. Count of elements : 274
  81. Stream size : 11.1 KiB (0%)
  82. Title : -1722
  83. Language : French
  84. Default : No
  85. Forced : No

  86. Text #4
  87. ID : 6
  88. Format : UTF-8
  89. Codec ID : S_TEXT/UTF8
  90. Codec ID/Info : UTF-8 Plain Text
  91. Duration : 1 h 55 min
  92. Bit rate : 12 b/s
  93. Count of elements : 273
  94. Stream size : 10.4 KiB (0%)
  95. Title : -1722
  96. Language : German
  97. Default : No
  98. Forced : No

  99. Text #5
  100. ID : 7
  101. Format : UTF-8
  102. Codec ID : S_TEXT/UTF8
  103. Codec ID/Info : UTF-8 Plain Text
  104. Duration : 1 h 55 min
  105. Bit rate : 12 b/s
  106. Count of elements : 277
  107. Stream size : 10.6 KiB (0%)
  108. Title : -1722
  109. Language : Italian
  110. Default : No
  111. Forced : No

  112. Text #6
  113. ID : 8
  114. Format : UTF-8
  115. Codec ID : S_TEXT/UTF8
  116. Codec ID/Info : UTF-8 Plain Text
  117. Duration : 1 h 55 min
  118. Bit rate : 11 b/s
  119. Count of elements : 273
  120. Stream size : 9.95 KiB (0%)
  121. Title : -1722
  122. Language : Breton
  123. Default : No
  124. Forced : No

  125. Text #7
  126. ID : 9
  127. Format : UTF-8
  128. Codec ID : S_TEXT/UTF8
  129. Codec ID/Info : UTF-8 Plain Text
  130. Duration : 1 h 55 min
  131. Bit rate : 11 b/s
  132. Count of elements : 276
  133. Stream size : 9.87 KiB (0%)
  134. Title : -1722
  135. Language : Spanish
  136. Default : No
  137. Forced : No

  138. Text #8
  139. ID : 10
  140. Format : UTF-8
  141. Codec ID : S_TEXT/UTF8
  142. Codec ID/Info : UTF-8 Plain Text
  143. Duration : 1 h 55 min
  144. Bit rate : 12 b/s
  145. Count of elements : 276
  146. Stream size : 10.6 KiB (0%)
  147. Title : -1722
  148. Language : Latin
  149. Default : No
  150. Forced : No
复制代码


Nick.Masons.Saucerful.of.Secrets.Live.at.the.Roundhouse.2019.2160p.WEBRip.x265下载

Nick.Masons.Saucerful.of.Secrets.Live.at.the.Roundhouse.2019.2160p.WEBRip.x265【12.19 GB】
Nick.Masons.Saucerful.of.Secrets.Live.at.the.Roundhouse.2019.2160p.WEBRip.x265.torrent (61.67 KB, 售价: 1 K币)
回复

使用道具 举报

全部回复22

joehawk 发表于 2021-4-28 18:13:54

joehawk 沙发

2021-4-28 18:13:54

这是电影还是现场演唱会?
回复 支持 反对

使用道具 举报

lulu840314 发表于 2021-4-28 18:30:57

lulu840314 板凳

2021-4-28 18:30:57

这个好看吗
回复 支持 反对

使用道具 举报

Ken_Zhao 发表于 2021-4-28 20:12:24

Ken_Zhao 地板

2021-4-28 20:12:24

赞赞赞,多谢分享!
回复 支持 反对

使用道具 举报

aftok123 发表于 2021-4-28 21:30:42

aftok123 5#

2021-4-28 21:30:42

着是记录片吗
回复 支持 反对

使用道具 举报

yale 发表于 2021-4-28 21:55:56

yale 6#

2021-4-28 21:55:56

谢谢分享
回复 支持 反对

使用道具 举报

liujiawei 发表于 2021-4-28 23:04:59

liujiawei 7#

2021-4-28 23:04:59

码住码住感谢楼主
回复 支持 反对

使用道具 举报

dk30129 发表于 2021-4-29 08:47:17

dk30129 8#

2021-4-29 08:47:17

谢谢分享,辛苦了!!!!
回复 支持 反对

使用道具 举报

秋天的树 发表于 2021-4-29 09:06:07

秋天的树 9#

2021-4-29 09:06:07

什么片子啊?
回复 支持 反对

使用道具 举报

18696985198 发表于 2021-4-29 09:08:25

18696985198 10#

2021-4-29 09:08:25

上网查了下:表演者: Nick Mason's Saucerful Of Secrets,歌名:Live At The Roundhouse,歌名:流派: 摇滚,
回复 支持 反对

使用道具 举报

panbell 发表于 2021-4-29 10:50:36

panbell 11#

2021-4-29 10:50:36

谢谢分享,辛苦了!
回复 支持 反对

使用道具 举报

rookingbo 发表于 2021-4-29 11:19:13

rookingbo 12#

2021-4-29 11:19:13

这是啥电影呀?
回复 支持 反对

使用道具 举报

yangly 发表于 2021-4-29 11:53:15

yangly 13#

2021-4-29 11:53:15

多谢分享!
回复 支持 反对

使用道具 举报

loushunming 发表于 2021-4-29 20:39:35

loushunming 14#

2021-4-29 20:39:35

很不错的资源,多谢分享!
回复 支持 反对

使用道具 举报

fudongq210 发表于 2021-4-29 20:46:15

fudongq210 15#

2021-4-29 20:46:15

多谢分享!
回复 支持 反对

使用道具 举报

tommy_fzw 发表于 2021-4-29 22:55:32

tommy_fzw 16#

2021-4-29 22:55:32

谢谢分享,辛苦了!
回复 支持 反对

使用道具 举报

andywjhh 发表于 2021-4-30 15:00:35

andywjhh 17#

2021-4-30 15:00:35

好资源很给力
回复 支持 反对

使用道具 举报

qw15022569913 发表于 2021-5-3 00:00:19

qw15022569913 18#

2021-5-3 00:00:19

谢谢分享
回复 支持 反对

使用道具 举报

   发表回复

您需要登录后才可以回帖 登录 | 立即注册

返回列表 本版积分规则

  • 在线客服

  • 返回顶部