微博 微信

Hao4K影音

[美剧] 早间新闻 第一季4k The.Morning.Show.S01.2160p.美剧下载

昨天 11:39 17016 3 |只看大图 回帖奖励 |倒序浏览 |阅读模式

大红色 楼主

2021-4-28 17:07:29

电视剧频道
电视剧封面:
电视剧名: 早间新闻 第一季4k
年  代: 2019  
国  家: 美国
类  别: 剧情 
语  言: 英语
字  幕: -
上映日期: 2019-11-01
文件格式: mkv    
视频效果: 4K(3840x2160)    
资源大小: 106.35 GB
片  长: 60 分钟
导  演: 米密·莱德 / 大卫·弗兰科尔 / 琳·谢尔顿 / 罗克珊·道森 / 塔克·盖茨 / 米歇尔·麦克拉伦 / 凯文·布瑞
剧情简介: 让我们揭开帷幕,聚焦每晨陪伴大众迎接新一天的新闻主播,走近早间新闻节目的台前幕后!
  剧集由詹妮弗·安妮斯顿、瑞茜·威瑟斯彭和史蒂夫·卡瑞尔领衔主演,以大胆直接的拍摄手法透视当代职场百态。
早间新闻 第一季 /晨间风云 / 晨早直播室(港) / 晨间直播秀(台)The.Morning.Show.S01.2160p.ATVP.WEB-DL.x265.10bit.HDR.DDP5.1.Atmos美剧信息
  1. Video
  2. ID : 1
  3. Format : HEVC
  4. Format/Info : High Efficiency Video Coding
  5. Format profile : Main 10@L5@High
  6. HDR format : SMPTE ST 2086, HDR10 compatible
  7. Codec ID : V_MPEGH/ISO/HEVC
  8. Duration : 1 h 8 min
  9. Bit rate : 24.7 Mb/s
  10. Width : 3 840 pixels
  11. Height : 1 920 pixels
  12. Display aspect ratio : 2.000
  13. Frame rate mode : Constant
  14. Frame rate : 23.976 (24000/1001) FPS
  15. Color space : YUV
  16. Chroma subsampling : 4:2:0 (Type 2)
  17. Bit depth : 10 bits
  18. Bits/(Pixel*Frame) : 0.140
  19. Stream size : 11.9 GiB (97%)
  20. Language : English
  21. Default : Yes
  22. Forced : No
  23. Color range : Limited
  24. Color primaries : BT.2020
  25. Transfer characteristics : PQ
  26. Matrix coefficients : BT.2020 non-constant
  27. Mastering display color primaries : Display P3
  28. Mastering display luminance : min: 0.0050 cd/m2, max: 1000 cd/m2
  29. Maximum Content Light Level : 612 cd/m2
  30. Maximum Frame-Average Light Level : 62 cd/m2

  31. Audio
  32. ID : 2
  33. Format : E-AC-3 JOC
  34. Format/Info : Enhanced AC-3 with Joint Object Coding
  35. Commercial name : Dolby Digital Plus with Dolby Atmos
  36. Codec ID : A_EAC3
  37. Duration : 1 h 8 min
  38. Bit rate mode : Constant
  39. Bit rate : 768 kb/s
  40. Channel(s) : 6 channels
  41. Channel layout : L R C LFE Ls Rs
  42. Sampling rate : 48.0 kHz
  43. Frame rate : 31.250 FPS (1536 SPF)
  44. Compression mode : Lossy
  45. Stream size : 378 MiB (3%)
  46. Language : English
  47. Service kind : Complete Main
  48. Default : Yes
  49. Forced : No
  50. Complexity index : 16
  51. Number of dynamic objects : 15
  52. Bed channel count : 1 channel
  53. Bed channel configuration : LFE

  54. Text #1
  55. ID : 3
  56. Format : UTF-8
  57. Codec ID : S_TEXT/UTF8
  58. Codec ID/Info : UTF-8 Plain Text
  59. Duration : 1 h 6 min
  60. Bit rate : 81 b/s
  61. Count of elements : 1007
  62. Stream size : 39.9 KiB (0%)
  63. Language : English
  64. Default : No
  65. Forced : No

  66. Text #2
  67. ID : 4
  68. Format : UTF-8
  69. Codec ID : S_TEXT/UTF8
  70. Codec ID/Info : UTF-8 Plain Text
  71. Duration : 1 h 8 min
  72. Bit rate : 84 b/s
  73. Count of elements : 1107
  74. Stream size : 42.2 KiB (0%)
  75. Title : English (SDH)
  76. Language : English
  77. Default : No
  78. Forced : No

  79. Text #3
  80. ID : 5
  81. Format : UTF-8
  82. Codec ID : S_TEXT/UTF8
  83. Codec ID/Info : UTF-8 Plain Text
  84. Duration : 1 h 8 min
  85. Bit rate : 113 b/s
  86. Count of elements : 1024
  87. Stream size : 57.3 KiB (0%)
  88. Language : Arabic
  89. Default : No
  90. Forced : No

  91. Text #4
  92. ID : 6
  93. Format : UTF-8
  94. Codec ID : S_TEXT/UTF8
  95. Codec ID/Info : UTF-8 Plain Text
  96. Duration : 1 h 8 min
  97. Bit rate : 105 b/s
  98. Count of elements : 1018
  99. Stream size : 53.1 KiB (0%)
  100. Language : Bulgarian
  101. Default : No
  102. Forced : No

  103. Text #5
  104. ID : 7
  105. Format : UTF-8
  106. Codec ID : S_TEXT/UTF8
  107. Codec ID/Info : UTF-8 Plain Text
  108. Duration : 1 h 8 min
  109. Bit rate : 68 b/s
  110. Count of elements : 1021
  111. Stream size : 34.6 KiB (0%)
  112. Title : Cantonese (Traditional)
  113. Language : Chinese
  114. Default : No
  115. Forced : No

  116. Text #6
  117. ID : 8
  118. Format : UTF-8
  119. Codec ID : S_TEXT/UTF8
  120. Codec ID/Info : UTF-8 Plain Text
  121. Duration : 1 h 8 min
  122. Bit rate : 68 b/s
  123. Count of elements : 1018
  124. Stream size : 34.7 KiB (0%)
  125. Title : Chinese (Simplified)
  126. Language : Chinese
  127. Default : No
  128. Forced : No

  129. Text #7
  130. ID : 9
  131. Format : UTF-8
  132. Codec ID : S_TEXT/UTF8
  133. Codec ID/Info : UTF-8 Plain Text
  134. Duration : 1 h 8 min
  135. Bit rate : 67 b/s
  136. Count of elements : 1021
  137. Stream size : 33.9 KiB (0%)
  138. Title : Chinese (Traditional)
  139. Language : Chinese
  140. Default : No
  141. Forced : No

  142. Text #8
  143. ID : 10
  144. Format : UTF-8
  145. Codec ID : S_TEXT/UTF8
  146. Codec ID/Info : UTF-8 Plain Text
  147. Duration : 1 h 8 min
  148. Bit rate : 70 b/s
  149. Count of elements : 1012
  150. Stream size : 35.6 KiB (0%)
  151. Language : Czech
  152. Default : No
  153. Forced : No

  154. Text #9
  155. ID : 11
  156. Format : UTF-8
  157. Codec ID : S_TEXT/UTF8
  158. Codec ID/Info : UTF-8 Plain Text
  159. Duration : 1 h 8 min
  160. Bit rate : 74 b/s
  161. Count of elements : 1015
  162. Stream size : 37.7 KiB (0%)
  163. Language : Danish
  164. Default : No
  165. Forced : No

  166. Text #10
  167. ID : 12
  168. Format : UTF-8
  169. Codec ID : S_TEXT/UTF8
  170. Codec ID/Info : UTF-8 Plain Text
  171. Duration : 1 h 8 min
  172. Bit rate : 55 b/s
  173. Count of elements : 995
  174. Stream size : 28.2 KiB (0%)
  175. Language : Dutch
  176. Default : No
  177. Forced : No

  178. Text #11
  179. ID : 13
  180. Format : UTF-8
  181. Codec ID : S_TEXT/UTF8
  182. Codec ID/Info : UTF-8 Plain Text
  183. Duration : 1 h 8 min
  184. Bit rate : 66 b/s
  185. Count of elements : 1017
  186. Stream size : 33.7 KiB (0%)
  187. Language : Estonian
  188. Default : No
  189. Forced : No

  190. Text #12
  191. ID : 14
  192. Format : UTF-8
  193. Codec ID : S_TEXT/UTF8
  194. Codec ID/Info : UTF-8 Plain Text
  195. Duration : 1 h 8 min
  196. Bit rate : 63 b/s
  197. Count of elements : 1012
  198. Stream size : 31.8 KiB (0%)
  199. Language : Finnish
  200. Default : No
  201. Forced : No

  202. Text #13
  203. ID : 15
  204. Format : UTF-8
  205. Codec ID : S_TEXT/UTF8
  206. Codec ID/Info : UTF-8 Plain Text
  207. Duration : 1 h 8 min
  208. Bit rate : 64 b/s
  209. Count of elements : 995
  210. Stream size : 32.2 KiB (0%)
  211. Title : French (Canada)
  212. Language : French
  213. Default : No
  214. Forced : No

  215. Text #14
  216. ID : 16
  217. Format : UTF-8
  218. Codec ID : S_TEXT/UTF8
  219. Codec ID/Info : UTF-8 Plain Text
  220. Duration : 1 h 8 min
  221. Bit rate : 64 b/s
  222. Count of elements : 992
  223. Stream size : 32.2 KiB (0%)
  224. Title : French (France)
  225. Language : French
  226. Default : No
  227. Forced : No

  228. Text #15
  229. ID : 17
  230. Format : UTF-8
  231. Codec ID : S_TEXT/UTF8
  232. Codec ID/Info : UTF-8 Plain Text
  233. Duration : 1 h 8 min
  234. Bit rate : 87 b/s
  235. Count of elements : 979
  236. Stream size : 44.2 KiB (0%)
  237. Language : German
  238. Default : No
  239. Forced : No

  240. Text #16
  241. ID : 18
  242. Format : UTF-8
  243. Codec ID : S_TEXT/UTF8
  244. Codec ID/Info : UTF-8 Plain Text
  245. Duration : 1 h 8 min
  246. Bit rate : 128 b/s
  247. Count of elements : 1020
  248. Stream size : 64.8 KiB (0%)
  249. Language : Greek
  250. Default : No
  251. Forced : No

  252. Text #17
  253. ID : 19
  254. Format : UTF-8
  255. Codec ID : S_TEXT/UTF8
  256. Codec ID/Info : UTF-8 Plain Text
  257. Duration : 1 h 8 min
  258. Bit rate : 101 b/s
  259. Count of elements : 1024
  260. Stream size : 50.9 KiB (0%)
  261. Language : Hebrew
  262. Default : No
  263. Forced : No

  264. Text #18
  265. ID : 20
  266. Format : UTF-8
  267. Codec ID : S_TEXT/UTF8
  268. Codec ID/Info : UTF-8 Plain Text
  269. Duration : 1 h 8 min
  270. Bit rate : 201 b/s
  271. Count of elements : 1024
  272. Stream size : 101 KiB (0%)
  273. Language : Hindi
  274. Default : No
  275. Forced : No

  276. Text #19
  277. ID : 21
  278. Format : UTF-8
  279. Codec ID : S_TEXT/UTF8
  280. Codec ID/Info : UTF-8 Plain Text
  281. Duration : 1 h 8 min
  282. Bit rate : 77 b/s
  283. Count of elements : 1015
  284. Stream size : 39.0 KiB (0%)
  285. Language : Hungarian
  286. Default : No
  287. Forced : No

  288. Text #20
  289. ID : 22
  290. Format : UTF-8
  291. Codec ID : S_TEXT/UTF8
  292. Codec ID/Info : UTF-8 Plain Text
  293. Duration : 1 h 4 min
  294. Bit rate : 75 b/s
  295. Count of elements : 955
  296. Stream size : 35.6 KiB (0%)
  297. Language : Indonesian
  298. Default : No
  299. Forced : No

  300. Text #21
  301. ID : 23
  302. Format : UTF-8
  303. Codec ID : S_TEXT/UTF8
  304. Codec ID/Info : UTF-8 Plain Text
  305. Duration : 1 h 7 min
  306. Bit rate : 77 b/s
  307. Count of elements : 915
  308. Stream size : 38.4 KiB (0%)
  309. Language : Italian
  310. Default : No
  311. Forced : No

  312. Text #22
  313. ID : 24
  314. Format : UTF-8
  315. Codec ID : S_TEXT/UTF8
  316. Codec ID/Info : UTF-8 Plain Text
  317. Duration : 1 h 8 min
  318. Bit rate : 61 b/s
  319. Count of elements : 949
  320. Stream size : 31.0 KiB (0%)
  321. Language : Japanese
  322. Default : No
  323. Forced : No

  324. Text #23
  325. ID : 25
  326. Format : UTF-8
  327. Codec ID : S_TEXT/UTF8
  328. Codec ID/Info : UTF-8 Plain Text
  329. Duration : 1 h 8 min
  330. Bit rate : 79 b/s
  331. Count of elements : 1019
  332. Stream size : 39.8 KiB (0%)
  333. Language : Latvian
  334. Default : No
  335. Forced : No

  336. Text #24
  337. ID : 26
  338. Format : UTF-8
  339. Codec ID : S_TEXT/UTF8
  340. Codec ID/Info : UTF-8 Plain Text
  341. Duration : 1 h 8 min
  342. Bit rate : 71 b/s
  343. Count of elements : 1018
  344. Stream size : 36.1 KiB (0%)
  345. Language : Lithuanian
  346. Default : No
  347. Forced : No

  348. Text #25
  349. ID : 27
  350. Format : UTF-8
  351. Codec ID : S_TEXT/UTF8
  352. Codec ID/Info : UTF-8 Plain Text
  353. Duration : 1 h 8 min
  354. Bit rate : 78 b/s
  355. Count of elements : 1015
  356. Stream size : 39.3 KiB (0%)
  357. Language : Malay
  358. Default : No
  359. Forced : No

  360. Text #26
  361. ID : 28
  362. Format : UTF-8
  363. Codec ID : S_TEXT/UTF8
  364. Codec ID/Info : UTF-8 Plain Text
  365. Duration : 1 h 8 min
  366. Bit rate : 70 b/s
  367. Count of elements : 1014
  368. Stream size : 35.5 KiB (0%)
  369. Language : Norwegian
  370. Default : No
  371. Forced : No

  372. Text #27
  373. ID : 29
  374. Format : UTF-8
  375. Codec ID : S_TEXT/UTF8
  376. Codec ID/Info : UTF-8 Plain Text
  377. Duration : 1 h 8 min
  378. Bit rate : 68 b/s
  379. Count of elements : 1017
  380. Stream size : 34.7 KiB (0%)
  381. Language : Polish
  382. Default : No
  383. Forced : No

  384. Text #28
  385. ID : 30
  386. Format : UTF-8
  387. Codec ID : S_TEXT/UTF8
  388. Codec ID/Info : UTF-8 Plain Text
  389. Duration : 1 h 8 min
  390. Bit rate : 74 b/s
  391. Count of elements : 1016
  392. Stream size : 37.4 KiB (0%)
  393. Language : Portuguese
  394. Default : No
  395. Forced : No

  396. Text #29
  397. ID : 31
  398. Format : UTF-8
  399. Codec ID : S_TEXT/UTF8
  400. Codec ID/Info : UTF-8 Plain Text
  401. Duration : 1 h 8 min
  402. Bit rate : 65 b/s
  403. Count of elements : 1013
  404. Stream size : 33.1 KiB (0%)
  405. Title : Portuguese (Brazil)
  406. Language : Portuguese
  407. Default : No
  408. Forced : No

  409. Text #30
  410. ID : 32
  411. Format : UTF-8
  412. Codec ID : S_TEXT/UTF8
  413. Codec ID/Info : UTF-8 Plain Text
  414. Duration : 1 h 8 min
  415. Bit rate : 116 b/s
  416. Count of elements : 1024
  417. Stream size : 58.6 KiB (0%)
  418. Language : Russian
  419. Default : No
  420. Forced : No

  421. Text #31
  422. ID : 33
  423. Format : UTF-8
  424. Codec ID : S_TEXT/UTF8
  425. Codec ID/Info : UTF-8 Plain Text
  426. Duration : 1 h 8 min
  427. Bit rate : 65 b/s
  428. Count of elements : 1014
  429. Stream size : 33.0 KiB (0%)
  430. Language : Slovak
  431. Default : No
  432. Forced : No

  433. Text #32
  434. ID : 34
  435. Format : UTF-8
  436. Codec ID : S_TEXT/UTF8
  437. Codec ID/Info : UTF-8 Plain Text
  438. Duration : 1 h 8 min
  439. Bit rate : 60 b/s
  440. Count of elements : 1017
  441. Stream size : 30.7 KiB (0%)
  442. Language : Slovenian
  443. Default : No
  444. Forced : No

  445. Text #33
  446. ID : 35
  447. Format : UTF-8
  448. Codec ID : S_TEXT/UTF8
  449. Codec ID/Info : UTF-8 Plain Text
  450. Duration : 1 h 8 min
  451. Bit rate : 75 b/s
  452. Count of elements : 1000
  453. Stream size : 38.0 KiB (0%)
  454. Title : Spanish (Latin America)
  455. Language : Spanish
  456. Default : No
  457. Forced : No

  458. Text #34
  459. ID : 36
  460. Format : UTF-8
  461. Codec ID : S_TEXT/UTF8
  462. Codec ID/Info : UTF-8 Plain Text
  463. Duration : 1 h 8 min
  464. Bit rate : 76 b/s
  465. Count of elements : 1204
  466. Stream size : 38.7 KiB (0%)
  467. Title : Spanish (Spain)
  468. Language : Spanish
  469. Default : No
  470. Forced : No

  471. Text #35
  472. ID : 37
  473. Format : UTF-8
  474. Codec ID : S_TEXT/UTF8
  475. Codec ID/Info : UTF-8 Plain Text
  476. Duration : 1 h 8 min
  477. Bit rate : 73 b/s
  478. Count of elements : 1016
  479. Stream size : 37.2 KiB (0%)
  480. Language : Swedish
  481. Default : No
  482. Forced : No

  483. Text #36
  484. ID : 38
  485. Format : UTF-8
  486. Codec ID : S_TEXT/UTF8
  487. Codec ID/Info : UTF-8 Plain Text
  488. Duration : 1 h 8 min
  489. Bit rate : 241 b/s
  490. Count of elements : 1023
  491. Stream size : 122 KiB (0%)
  492. Language : Tamil
  493. Default : No
  494. Forced : No

  495. Text #37
  496. ID : 39
  497. Format : UTF-8
  498. Codec ID : S_TEXT/UTF8
  499. Codec ID/Info : UTF-8 Plain Text
  500. Duration : 1 h 8 min
  501. Bit rate : 228 b/s
  502. Count of elements : 1023
  503. Stream size : 115 KiB (0%)
  504. Language : Telugu
  505. Default : No
  506. Forced : No

  507. Text #38
  508. ID : 40
  509. Format : UTF-8
  510. Codec ID : S_TEXT/UTF8
  511. Codec ID/Info : UTF-8 Plain Text
  512. Duration : 1 h 8 min
  513. Bit rate : 192 b/s
  514. Count of elements : 1023
  515. Stream size : 96.9 KiB (0%)
  516. Language : Thai
  517. Default : No
  518. Forced : No

  519. Text #39
  520. ID : 41
  521. Format : UTF-8
  522. Codec ID : S_TEXT/UTF8
  523. Codec ID/Info : UTF-8 Plain Text
  524. Duration : 1 h 8 min
  525. Bit rate : 108 b/s
  526. Count of elements : 1024
  527. Stream size : 54.6 KiB (0%)
  528. Language : Ukrainian
  529. Default : No
  530. Forced : No

  531. Text #40
  532. ID : 42
  533. Format : UTF-8
  534. Codec ID : S_TEXT/UTF8
  535. Codec ID/Info : UTF-8 Plain Text
  536. Duration : 1 h 8 min
  537. Bit rate : 100 b/s
  538. Count of elements : 1019
  539. Stream size : 50.4 KiB (0%)
  540. Language : Vietnamese
  541. Default : No
  542. Forced : No

  543. Menu
  544. 00:00:00.000 : en:Chapter 01
  545. 00:02:28.566 : en:Chapter 02
复制代码

早间新闻 第一季 /晨间风云 / 晨早直播室(港) / 晨间直播秀(台)The.Morning.Show.S01.2160p.ATVP.WEB-DL.x265.10bit.HDR.DDP5.1.Atmos美剧下载

早间新闻 第一季4K The.Morning.Show.S01.2160p.ATVP.WEB-DL.x265.10bit.HDR.DDP5.1.Atmos【106.35GB】
[Hao4k]早间新闻 第一季4k The.Morning.Show.S01.2160p.ATVP.WEB-DL.x265.10bit.HDR.D.torrent (267.37 KB)
回复

使用道具 举报

全部回复3

lulu840314 发表于 2021-4-28 18:30:15

lulu840314 沙发

2021-4-28 18:30:15

这个好看吗
回复 支持 反对

使用道具 举报

MarvinTeng 发表于 2021-5-6 09:57:20

MarvinTeng 板凳

2021-5-6 09:57:20

下来看看
回复 支持 反对

使用道具 举报

affece 发表于 昨天 11:39

affece 地板

昨天 11:39

同问  好看不
回复 支持 反对

使用道具 举报

   发表回复

您需要登录后才可以回帖 登录 | 立即注册

返回列表 本版积分规则

:
白银玩家
:
未填写

主题

帖子

积分1091

图文推荐

  • 不用madVR也能正确显示HDR——新版PotPlaye

    用PC看视频的朋友多多少少都用过PotPlayer这个神

  • 教你如何制做自已喜欢的字幕 (上)

    一部好片源自然需要自已喜欢的字幕,正如才子与佳

  • 隐藏式音箱5.1家庭影院案例

    为什么论坛没有人像我一样做这种隐形音箱方案呢?

  • 昨晚重温了《生死时速》4K版,这部经典大片

    昨晚重温了《生死时速》4K版,这部经典大片。记得

  • 买到这样爱普生tw7000机器是不是中奖了

    新人首贴。请求关爱。 我这个星期买了心仪已久的

  • 电锯惊魂9:漩涡将发布4K UHD蓝光影碟

    【美影 4K】电锯惊魂9:漩涡上映后将发布4K UHD

  • 在线客服

  • 返回顶部