微博 微信

Hao4K影音

[美剧] 不义之财:十年不晚4k Snabba.Cash.S01.SWEDISH.2160p美剧下载

前天 10:29 11743 1 |只看大图 回帖奖励 |倒序浏览 |阅读模式

大红色 楼主

2021-4-28 17:59:15

电视剧频道
电视剧封面:
电视剧名: 不义之财:十年不晚4k
年  代: 2021  
国  家: 其他
类  别:  
语  言: 其他
字  幕: -
上映日期: 2021-04-07
文件格式: mkv    
视频效果: 4K(3840x2160)    
资源大小: 27.26 GB
片  长: 40 分钟
导  演: 贾斯珀·加斯兰特 / 曼斯·曼斯森
剧情简介: 乔尔·金纳曼主演的瑞典犯罪剧情片系列《不义之财》将拍成Netflix剧集,共6集,设定在电影事件后10年的斯德哥尔摩,大环境蠢蠢欲动,人们对名利的渴望无比强烈。黑白两道都变得更残忍、混乱、无序。当双方发生冲撞,忠诚、友谊和生意搭档之情,都在对“快钱”的无尽追逐中受到考验。
  原电影版制作方SF Studios继续制作剧版。Oskar Söderlund(《Greyzone》)和作家Jens Lapidus开发,Nicklas Wikström(《一个叫欧维的男人决定去死》)任制作人,演员阵容尚未宣布。
不义之财:十年不晚4k Snabba.Cash.S01.SWEDISH.2160pNF.WEBRip.x265.10bit.HDR.DDP5.1美剧信息
  1. Video
  2. ID : 1
  3. Format : HEVC
  4. Format/Info : High Efficiency Video Coding
  5. Format profile : Main 10@L5.1@High
  6. HDR format : SMPTE ST 2086, HDR10 compatible
  7. Codec ID : V_MPEGH/ISO/HEVC
  8. Duration : 50 min 32 s
  9. Bit rate : 14.8 Mb/s
  10. Width : 3 840 pixels
  11. Height : 2 160 pixels
  12. Display aspect ratio : 16:9
  13. Frame rate mode : Constant
  14. Frame rate : 25.000 FPS
  15. Color space : YUV
  16. Chroma subsampling : 4:2:0 (Type 2)
  17. Bit depth : 10 bits
  18. Bits/(Pixel*Frame) : 0.072
  19. Stream size : 5.24 GiB (96%)
  20. Writing library : x265 3.4+32-b24459657:[Windows][GCC 9.3.0][64 bit] 10bit
  21. Encoding settings : cpuid=1111039 / frame-threads=4 / numa-pools=28 / wpp / no-pmode / no-pme / no-psnr / no-ssim / log-level=2 / input-csp=1 / input-res=3840x2160 / interlace=0 / total-frames=0 / level-idc=51 / high-tier=1 / uhd-bd=0 / ref=4 / no-allow-non-conformance / repeat-headers / annexb / no-aud / no-hrd / info / hash=0 / no-temporal-layers / no-open-gop / min-keyint=25 / keyint=250 / gop-lookahead=0 / bframes=3 / b-adapt=2 / b-pyramid / bframe-bias=0 / rc-lookahead=20 / lookahead-slices=8 / scenecut=40 / hist-scenecut=0 / radl=0 / no-splice / no-intra-refresh / ctu=64 / min-cu-size=8 / no-rect / no-amp / max-tu-size=32 / tu-inter-depth=1 / tu-intra-depth=1 / limit-tu=0 / rdoq-level=0 / dynamic-rd=0.00 / no-ssim-rd / signhide / no-tskip / nr-intra=0 / nr-inter=0 / no-constrained-intra / no-strong-intra-smoothing / max-merge=3 / limit-refs=1 / no-limit-modes / me=1 / subme=2 / merange=57 / temporal-mvp / no-frame-dup / no-hme / weightp / no-weightb / no-analyze-src-pics / deblock=-3:-3 / no-sao / no-sao-non-deblock / rd=3 / selective-sao=0 / early-skip / rskip / no-fast-intra / no-tskip-fast / no-cu-lossless / b-intra / no-splitrd-skip / rdpenalty=0 / psy-rd=2.00 / psy-rdoq=0.00 / no-rd-refine / no-lossless / cbqpoffs=0 / crqpoffs=0 / rc=crf / crf=19.0 / qcomp=0.60 / qpstep=4 / stats-write=0 / stats-read=0 / vbv-maxrate=160000 / vbv-bufsize=160000 / vbv-init=0.9 / min-vbv-fullness=50.0 / max-vbv-fullness=80.0 / crf-max=0.0 / crf-min=0.0 / ipratio=1.40 / pbratio=1.30 / aq-mode=2 / aq-strength=1.00 / no-cutree / zone-count=0 / no-strict-cbr / qg-size=32 / no-rc-grain / qpmax=69 / qpmin=0 / no-const-vbv / sar=1 / overscan=0 / videoformat=5 / range=0 / colorprim=9 / transfer=16 / colormatrix=9 / chromaloc=1 / chromaloc-top=2 / chromaloc-bottom=2 / display-window=0 / master-display=G(13250,34500)B(7500,3000)R(34000,16000)WP(15635,16450)L(10000000,1) / cll=1196,224 / min-luma=0 / max-luma=1023 / log2-max-poc-lsb=8 / vui-timing-info / vui-hrd-info / slices=1 / no-opt-qp-pps / no-opt-ref-list-length-pps / no-multi-pass-opt-rps / scenecut-bias=0.05 / hist-threshold=0.03 / no-opt-cu-delta-qp / no-aq-motion / hdr10 / hdr10-opt / no-dhdr10-opt / no-idr-recovery-sei / analysis-reuse-level=0 / analysis-save-reuse-level=0 / analysis-load-reuse-level=0 / scale-factor=0 / refine-intra=0 / refine-inter=0 / refine-mv=1 / refine-ctu-distortion=0 / no-limit-sao / ctu-info=0 / no-lowpass-dct / refine-analysis-type=0 / copy-pic=1 / max-ausize-factor=1.0 / no-dynamic-refine / no-single-sei / no-hevc-aq / no-svt / no-field / qp-adaptation-range=1.00 / no-scenecut-aware-qpconformance-window-offsets / right=0 / bottom=0 / decoder-max-rate=0 / no-vbv-live-multi-pass
  22. Default : Yes
  23. Forced : No
  24. Color range : Limited
  25. Color primaries : BT.2020
  26. Transfer characteristics : PQ
  27. Matrix coefficients : BT.2020 non-constant
  28. Mastering display color primaries : Display P3
  29. Mastering display luminance : min: 0.0001 cd/m2, max: 1000 cd/m2
  30. Maximum Content Light Level : 1196 cd/m2
  31. Maximum Frame-Average Light Level : 224 cd/m2

  32. Audio
  33. ID : 2
  34. Format : E-AC-3
  35. Format/Info : Enhanced AC-3
  36. Commercial name : Dolby Digital Plus
  37. Codec ID : A_EAC3
  38. Duration : 51 min 32 s
  39. Bit rate mode : Constant
  40. Bit rate : 640 kb/s
  41. Channel(s) : 6 channels
  42. Channel layout : L R C LFE Ls Rs
  43. Sampling rate : 48.0 kHz
  44. Frame rate : 31.250 FPS (1536 SPF)
  45. Compression mode : Lossy
  46. Delay relative to video : 31 ms
  47. Stream size : 236 MiB (4%)
  48. Language : Swedish
  49. Service kind : Complete Main
  50. Default : Yes
  51. Forced : No

  52. Text #1
  53. ID : 3
  54. Format : UTF-8
  55. Codec ID : S_TEXT/UTF8
  56. Codec ID/Info : UTF-8 Plain Text
  57. Duration : 49 min 24 s
  58. Bit rate : 42 b/s
  59. Count of elements : 549
  60. Stream size : 15.4 KiB (0%)
  61. Language : English
  62. Default : Yes
  63. Forced : No

  64. Text #2
  65. ID : 4
  66. Format : UTF-8
  67. Codec ID : S_TEXT/UTF8
  68. Codec ID/Info : UTF-8 Plain Text
  69. Duration : 49 min 29 s
  70. Bit rate : 71 b/s
  71. Count of elements : 738
  72. Stream size : 25.9 KiB (0%)
  73. Title : SDH
  74. Language : English
  75. Default : No
  76. Forced : No

  77. Text #3
  78. ID : 5
  79. Format : UTF-8
  80. Codec ID : S_TEXT/UTF8
  81. Codec ID/Info : UTF-8 Plain Text
  82. Duration : 2 s 160 ms
  83. Bit rate : 114 b/s
  84. Count of elements : 1
  85. Stream size : 31.0 Bytes (0%)
  86. Title : Forced
  87. Language : Swedish
  88. Default : No
  89. Forced : Yes

  90. Text #4
  91. ID : 6
  92. Format : UTF-8
  93. Codec ID : S_TEXT/UTF8
  94. Codec ID/Info : UTF-8 Plain Text
  95. Duration : 49 min 24 s
  96. Bit rate : 59 b/s
  97. Count of elements : 556
  98. Stream size : 21.4 KiB (0%)
  99. Title : SDH
  100. Language : Swedish
  101. Default : No
  102. Forced : No

  103. Text #5
  104. ID : 7
  105. Format : UTF-8
  106. Codec ID : S_TEXT/UTF8
  107. Codec ID/Info : UTF-8 Plain Text
  108. Duration : 50 min 23 s
  109. Bit rate : 80 b/s
  110. Count of elements : 515
  111. Stream size : 29.8 KiB (0%)
  112. Language : Arabic
  113. Default : No
  114. Forced : No

  115. Text #6
  116. ID : 8
  117. Format : UTF-8
  118. Codec ID : S_TEXT/UTF8
  119. Codec ID/Info : UTF-8 Plain Text
  120. Duration : 50 min 23 s
  121. Bit rate : 46 b/s
  122. Count of elements : 508
  123. Stream size : 17.0 KiB (0%)
  124. Language : Czech
  125. Default : No
  126. Forced : No

  127. Text #7
  128. ID : 9
  129. Format : UTF-8
  130. Codec ID : S_TEXT/UTF8
  131. Codec ID/Info : UTF-8 Plain Text
  132. Duration : 50 min 23 s
  133. Bit rate : 43 b/s
  134. Count of elements : 515
  135. Stream size : 16.1 KiB (0%)
  136. Language : Danish
  137. Default : No
  138. Forced : No

  139. Text #8
  140. ID : 10
  141. Format : UTF-8
  142. Codec ID : S_TEXT/UTF8
  143. Codec ID/Info : UTF-8 Plain Text
  144. Duration : 50 min 23 s
  145. Bit rate : 44 b/s
  146. Count of elements : 613
  147. Stream size : 16.4 KiB (0%)
  148. Language : German
  149. Default : No
  150. Forced : No

  151. Text #9
  152. ID : 11
  153. Format : UTF-8
  154. Codec ID : S_TEXT/UTF8
  155. Codec ID/Info : UTF-8 Plain Text
  156. Duration : 50 min 23 s
  157. Bit rate : 75 b/s
  158. Count of elements : 523
  159. Stream size : 27.9 KiB (0%)
  160. Language : Greek
  161. Default : No
  162. Forced : No

  163. Text #10
  164. ID : 12
  165. Format : UTF-8
  166. Codec ID : S_TEXT/UTF8
  167. Codec ID/Info : UTF-8 Plain Text
  168. Duration : 50 min 23 s
  169. Bit rate : 46 b/s
  170. Count of elements : 524
  171. Stream size : 17.0 KiB (0%)
  172. Title : Latin American
  173. Language : Spanish
  174. Default : No
  175. Forced : No

  176. Text #11
  177. ID : 13
  178. Format : UTF-8
  179. Codec ID : S_TEXT/UTF8
  180. Codec ID/Info : UTF-8 Plain Text
  181. Duration : 50 min 23 s
  182. Bit rate : 45 b/s
  183. Count of elements : 517
  184. Stream size : 17.0 KiB (0%)
  185. Language : Spanish
  186. Default : No
  187. Forced : No

  188. Text #12
  189. ID : 14
  190. Format : UTF-8
  191. Codec ID : S_TEXT/UTF8
  192. Codec ID/Info : UTF-8 Plain Text
  193. Duration : 50 min 23 s
  194. Bit rate : 43 b/s
  195. Count of elements : 456
  196. Stream size : 16.0 KiB (0%)
  197. Language : Finnish
  198. Default : No
  199. Forced : No

  200. Text #13
  201. ID : 15
  202. Format : UTF-8
  203. Codec ID : S_TEXT/UTF8
  204. Codec ID/Info : UTF-8 Plain Text
  205. Duration : 50 min 23 s
  206. Bit rate : 47 b/s
  207. Count of elements : 562
  208. Stream size : 17.4 KiB (0%)
  209. Language : French
  210. Default : No
  211. Forced : No

  212. Text #14
  213. ID : 16
  214. Format : UTF-8
  215. Codec ID : S_TEXT/UTF8
  216. Codec ID/Info : UTF-8 Plain Text
  217. Duration : 50 min 24 s
  218. Bit rate : 71 b/s
  219. Count of elements : 514
  220. Stream size : 26.2 KiB (0%)
  221. Language : Hebrew
  222. Default : No
  223. Forced : No

  224. Text #15
  225. ID : 17
  226. Format : UTF-8
  227. Codec ID : S_TEXT/UTF8
  228. Codec ID/Info : UTF-8 Plain Text
  229. Duration : 50 min 23 s
  230. Bit rate : 42 b/s
  231. Count of elements : 509
  232. Stream size : 15.6 KiB (0%)
  233. Language : Croatian
  234. Default : No
  235. Forced : No

  236. Text #16
  237. ID : 18
  238. Format : UTF-8
  239. Codec ID : S_TEXT/UTF8
  240. Codec ID/Info : UTF-8 Plain Text
  241. Duration : 50 min 23 s
  242. Bit rate : 48 b/s
  243. Count of elements : 512
  244. Stream size : 17.9 KiB (0%)
  245. Language : Hungarian
  246. Default : No
  247. Forced : No
复制代码

不义之财:十年不晚4k Snabba.Cash.S01.SWEDISH.2160pNF.WEBRip.x265.10bit.HDR.DDP5.1美剧下载

不义之财:十年不晚4k Snabba.Cash.S01.SWEDISH.2160pNF.WEBRip.x265.10bit.HDR.DDP5.1【27.26 GB】
[Hao4k]不义之财:十年不晚4k Snabba.Cash.S01.SWEDISH.2160p.NF.WEBRip.x265.10bit.H.torrent (69.26 KB)
回复

使用道具 举报

全部回复1

ywf6168 发表于 前天 10:29

ywf6168 沙发

前天 10:29

谢谢分享
回复 支持 反对

使用道具 举报

   发表回复

您需要登录后才可以回帖 登录 | 立即注册

返回列表 本版积分规则

:
白银玩家
:
未填写

主题

帖子

积分1056

图文推荐

  • 我本人觉得这种硬盘座+播放机是折中党最好

    NAS太贵了,4盒以上的硬盘柜也不便宜,随着资源越

  • 即将发布:最终幻想7:终极指令4K UHD 2160

    最新消息:2005年日本动作/悬疑/动画电影《最终幻

  • 不用madVR也能正确显示HDR——新版PotPlaye

    用PC看视频的朋友多多少少都用过PotPlayer这个神

  • 即将发布:电锯惊魂4K UHD 2160p蓝光原盘电

    最新消息:2004年经典悬疑/惊悚/恐怖片《电锯惊魂

  • 教你如何制做自已喜欢的字幕 (上)

    一部好片源自然需要自已喜欢的字幕,正如才子与佳

  • 隐藏式音箱5.1家庭影院案例

    为什么论坛没有人像我一样做这种隐形音箱方案呢?

  • 在线客服

  • 返回顶部