微博 微信

Hao4K影音

电影频道
电影封面:
片  名: 潜伏4:锁命亡灵4k
电影分类: 恐怖 惊悚 
国  家: 美国 
年  代: 2018年
分 辨 率: 4K(3840x2160)
电影格式: MKV|REMUX 
画质标准: HDR 
音质编码: DTS-HD Master Audio 
电影声道: 5.1声道 
帧数/FPS: 23.976 帧
电影语言: 英文原版 
资源大小: 55.66 GB
导  演: 亚当·罗比特尔
豆瓣评分: 6.4 分
中文字幕: /thread-56855-1-1.html
剧情简介: 《阴儿房第3章:从灵开始》琳雪伊回归饰演超自然心理学家,由《失魂记忆》导演亚当罗勃提尔执导、《阴儿房》系列原创团队之一的雷沃纳尔执笔剧本、鬼才导演温子仁将担任制片,打造极致惊悚的最新经典。
  《阴儿房第4章:锁命亡灵》不仅将带来恐怖加倍的全新故事,制片规模亦更较以往全面升级,导演受访时表示:「开拍前我甚至派特效师至美国费城一座有两百年历史的废弃监狱考察,我相信唯有体验过那种压迫黑暗且气氛极难承受的环境,我们才能真实呈现出囚禁那种最骇人的场景。」
  故事讲述,灵媒爱丽丝在一次偶然的案件调查中,却意外将他带回最不愿面对的过往,更被迫面对内心最害怕的秘密,「恐惧是回家唯一的路⋯」。她将被迫「回家」面对内心深处最恐惧的黑暗阴影。
  在《阴儿房》系列扮演灵媒的琳雪伊无疑是贯穿电影的灵魂角色,全新作品《阴儿房第4章:锁命亡灵》中将揭露更多关于她的背景叙述,琳雪伊表示:「这次的故事会把很多大家的疑问都解释清楚,例如为何爱丽丝能成为与灵界沟通的角色,以及更多在这种『天赋』下她所承受的苦难与不愿面对的过程,我相信粉丝将会更能同理与对这个角色感到更深的共鸣。」
潜伏4 / 儿凶 第四回(港) / 阴儿房第4章:锁命亡灵(台) / 潜伏4:最后的线索 / 潜伏4:最后的钥匙 //潜伏4:锁命亡灵4k Insidious.The.Last.Key.2018.2160p.BCORE.WEB-DL.x265.10bit.HDR.DTS-HD.MA.5.1电影信息
  1. Video
  2. ID : 1
  3. Format : HEVC
  4. Format/Info : High Efficiency Video Coding
  5. Format profile : Main 10@L5.2@High
  6. HDR format : SMPTE ST 2086, HDR10 compatible
  7. Codec ID : V_MPEGH/ISO/HEVC
  8. Duration : 1 h 43 min
  9. Bit rate : 73.7 Mb/s
  10. Width : 3 840 pixels
  11. Height : 2 160 pixels
  12. Display aspect ratio : 16:9
  13. Frame rate mode : Constant
  14. Frame rate : 23.976 (24000/1001) FPS
  15. Color space : YUV
  16. Chroma subsampling : 4:2:0 (Type 2)
  17. Bit depth : 10 bits
  18. Bits/(Pixel*Frame) : 0.370
  19. Stream size : 53.1 GiB (95%)
  20. Language : English
  21. Default : Yes
  22. Forced : No
  23. Color range : Full
  24. Color primaries : BT.2020
  25. Transfer characteristics : PQ
  26. Matrix coefficients : BT.2020 non-constant
  27. Mastering display color primaries : Display P3
  28. Mastering display luminance : min: 0.0050 cd/m2, max: 4000 cd/m2
  29. Maximum Content Light Level : 997 cd/m2
  30. Maximum Frame-Average Light Level : 99 cd/m2

  31. Audio #1
  32. ID : 2
  33. Format : DTS XLL
  34. Format/Info : Digital Theater Systems
  35. Commercial name : DTS-HD Master Audio
  36. Codec ID : A_DTS
  37. Duration : 1 h 43 min
  38. Bit rate mode : Variable
  39. Bit rate : 2 151 kb/s
  40. Channel(s) : 6 channels
  41. Channel layout : C L R Ls Rs LFE
  42. Sampling rate : 48.0 kHz
  43. Frame rate : 93.750 FPS (512 SPF)
  44. Bit depth : 16 bits
  45. Compression mode : Lossless
  46. Delay relative to video : 9 ms
  47. Stream size : 1.55 GiB (3%)
  48. Title : DTS-HD MA 5.1
  49. Language : English
  50. Default : Yes
  51. Forced : No

  52. Audio #2
  53. ID : 3
  54. Format : DTS
  55. Format/Info : Digital Theater Systems
  56. Codec ID : A_DTS
  57. Duration : 1 h 43 min
  58. Bit rate mode : Constant
  59. Bit rate : 768 kb/s
  60. Channel(s) : 6 channels
  61. Channel layout : C L R Ls Rs LFE
  62. Sampling rate : 48.0 kHz
  63. Frame rate : 93.750 FPS (512 SPF)
  64. Bit depth : 24 bits
  65. Compression mode : Lossy
  66. Stream size : 567 MiB (1%)
  67. Title : DTS 5.1
  68. Language : English
  69. Default : No
  70. Forced : No

  71. Audio #3
  72. ID : 4
  73. Format : AC-3
  74. Format/Info : Audio Coding 3
  75. Commercial name : Dolby Digital
  76. Codec ID : A_AC3
  77. Duration : 1 h 43 min
  78. Bit rate mode : Constant
  79. Bit rate : 640 kb/s
  80. Channel(s) : 6 channels
  81. Channel layout : L R C LFE Ls Rs
  82. Sampling rate : 48.0 kHz
  83. Frame rate : 31.250 FPS (1536 SPF)
  84. Compression mode : Lossy
  85. Stream size : 472 MiB (1%)
  86. Title : DD 5.1
  87. Language : English
  88. Service kind : Complete Main
  89. Default : No
  90. Forced : No

  91. Text
  92. ID : 5
  93. Format : UTF-8
  94. Codec ID : S_TEXT/UTF8
  95. Codec ID/Info : UTF-8 Plain Text
  96. Duration : 1 h 34 min
  97. Bit rate : 34 b/s
  98. Count of elements : 835
  99. Stream size : 23.8 KiB (0%)
  100. Language : English
  101. Default : Yes
  102. Forced : No

  103. Menu
  104. 00:00:00.000 : 00:00:00.000
  105. 00:16:21.397 : 00:16:21.397
  106. 00:19:55.111 : 00:19:55.111
  107. 00:22:29.056 : 00:22:29.056
  108. 00:29:03.617 : 00:29:03.617
  109. 00:36:24.307 : 00:36:24.307
  110. 00:44:05.685 : 00:44:05.685
  111. 00:54:14.168 : 00:54:14.168
  112. 00:57:21.855 : 00:57:21.855
  113. 01:02:08.183 : 01:02:08.183
  114. 01:05:17.664 : 01:05:17.664
  115. 01:10:17.964 : 01:10:17.964
  116. 01:16:58.239 : 01:16:58.239
  117. 01:22:11.593 : 01:22:11.593
  118. 01:29:49.467 : 01:29:49.467
  119. 01:34:34.252 : 01:34:34.252
复制代码


潜伏4 / 儿凶 第四回(港) / 阴儿房第4章:锁命亡灵(台) / 潜伏4:最后的线索 / 潜伏4:最后的钥匙 //潜伏4:锁命亡灵4k Insidious.The.Last.Key.2018.2160p.BCORE.WEB-DL.x265.10bit.HDR.DTS-HD.MA.5.1电影下载

潜伏4:锁命亡灵4k Insidious.The.Last.Key.2018.2160p.BCORE.WEB-DL.x265.10bit.HDR.DTS-HD.MA.5.1【55.66 GB】
[Hao4k]潜伏4:锁命亡灵4k Insidious.The.Last.Key.2018.2160p.BCORE.WEB-DL.x265.10b.torrent (139.84 KB)

潜伏4:锁命亡灵4k电影中文字幕下载  感谢K友@苏默金武分享的字幕
https://www.hao4k.cn/thread-56855-1-1.html
分享到:  QQ好友和群QQ好友和群
回复

使用道具 举报

全部回复36

沙发
bbgrnnji 发表于 2021-4-29 21:19:53

bbgrnnji 沙发

2021-4-29 21:19:53

4K简直太喜欢恐怖片了
回复 支持 反对

使用道具 举报

板凳
kate5001 发表于 2021-4-29 21:49:27

kate5001 板凳

2021-4-29 21:49:27

现在web 4K片容量怎么这么大,Little.Women.web 2019要77G,刚上的Speed UHD只不过59G.
回复 支持 反对

使用道具 举报

地板
aftok123 发表于 2021-4-29 22:01:47

aftok123 地板

2021-4-29 22:01:47

大不要紧 关键是免费 呵呵
回复 支持 反对

使用道具 举报

5#
Hobin 发表于 2021-4-29 22:47:16

Hobin 5#

2021-4-29 22:47:16

有没有大佬来个字幕?
回复 支持 反对

使用道具 举报

6#
mccliqiang 发表于 2021-4-29 22:48:35

mccliqiang 6#

2021-4-29 22:48:35

恐怖片下载看看
回复 支持 1 反对 0

使用道具 举报

7#
xzyy0630 发表于 2021-4-30 00:18:47

xzyy0630 7#

2021-4-30 00:18:47


4K恐怖片
简直太喜欢了
回复 支持 反对

使用道具 举报

8#
CC142536 发表于 2021-4-30 00:23:49

CC142536 8#

2021-4-30 00:23:49

感谢分享
回复 支持 反对

使用道具 举报

9#
qbinq 发表于 2021-4-30 01:19:25

qbinq 9#

2021-4-30 01:19:25

简直太喜欢了
回复 支持 反对

使用道具 举报

10#
nk1013 发表于 2021-4-30 07:46:52

nk1013 10#

2021-4-30 07:46:52

喜欢
感谢分享
回复 支持 反对

使用道具 举报

11#
wulin 发表于 2021-4-30 08:45:09 Hao4K手机版

wulin 11#

2021-4-30 08:45:09

谢謝分享,万分感謝!
回复 支持 反对

使用道具 举报

12#
tyb888 发表于 2021-4-30 09:17:39

tyb888 12#

2021-4-30 09:17:39

这个确实很厉害!!!!
回复 支持 反对

使用道具 举报

13#
goodqf 发表于 2021-4-30 10:42:14

goodqf 13#

2021-4-30 10:42:14

谢谢分享了~这个片子还不错
回复 支持 反对

使用道具 举报

14#
panbell 发表于 2021-4-30 11:12:52

panbell 14#

2021-4-30 11:12:52

感谢分享
回复 支持 反对

使用道具 举报

15#
atom1 发表于 2021-4-30 12:21:29 Hao4K手机版

atom1 15#

2021-4-30 12:21:29

谢谢分享!
回复 支持 反对

使用道具 举报

16#
atom1 发表于 2021-4-30 12:22:19 Hao4K手机版

atom1 16#

2021-4-30 12:22:19

谢谢楼主的分享!
回复 支持 反对

使用道具 举报

17#
小竹 发表于 2021-4-30 13:00:44

小竹 17#

2021-4-30 13:00:44

4K恐怖片!看看吧
回复 支持 反对

使用道具 举报

18#
liyun80000 发表于 2021-4-30 13:55:44

liyun80000 18#

2021-4-30 13:55:44

谢谢楼主的分享
回复 支持 反对

使用道具 举报

   发表回复

您需要登录后才可以回帖 登录 | 立即注册

返回列表 本版积分规则

  • 在线客服

  • 返回顶部