微博 微信

Hao4K影音

电影频道
电影封面:
片  名: 太空异旅4K
电影分类: 科幻 冒险 惊悚 
国  家: 美国 
年  代: 2021年
分 辨 率: 4K(3840x2160)
电影格式: MKV|REMUX 
画质标准: HDR10 
音质编码: Dolby Digital Plus Audio 
电影声道: 5.1声道 
帧数/FPS: 23.976 帧
电影语言: 英文原版 
资源大小: 11.34 GB
导  演: 尼尔·博格
豆瓣评分: 5.8 分
中文字幕: /thread-56903-1-1.html
剧情简介: 在人类的一项长久的计划中,30个少年被送往一颗新行星居住。但是在他们的船长离奇的死亡以后,年轻的船员们陷入了混乱的局面当中。在屈服于人类原始的兽性之后,这些少年分别集结成了不同的部落。
一级任务(台) / 迷惘星空 / 旅行者 / 远航者/太空异旅4K.Voyagers.2021.2160p.AMZN.WEB-DL.x265.10bit.HDR10Plus.DDP5.1-4k电影信息
  1. Video
  2. ID : 1
  3. Format : HEVC
  4. Format/Info : High Efficiency Video Coding
  5. Format profile : Main 10@L5@Main
  6. HDR format : SMPTE ST 2094 App 4, Version 1, HDR10+ Profile B compatible
  7. Codec ID : V_MPEGH/ISO/HEVC
  8. Duration : 1 h 47 min
  9. Bit rate : 14.4 Mb/s
  10. Width : 3 840 pixels
  11. Height : 1 600 pixels
  12. Display aspect ratio : 2.40:1
  13. Frame rate mode : Constant
  14. Frame rate : 23.976 (24000/1001) FPS
  15. Color space : YUV
  16. Chroma subsampling : 4:2:0
  17. Bit depth : 10 bits
  18. Bits/(Pixel*Frame) : 0.098
  19. Stream size : 10.9 GiB (96%)
  20. Language : English
  21. Default : Yes
  22. Forced : No
  23. Color range : Limited
  24. Color primaries : BT.2020
  25. Transfer characteristics : PQ
  26. Matrix coefficients : BT.2020 non-constant
  27. Mastering display color primaries : Display P3
  28. Mastering display luminance : min: 0.0050 cd/m2, max: 1000 cd/m2
  29. Maximum Content Light Level : 1000 cd/m2
  30. Maximum Frame-Average Light Level : 383 cd/m2

  31. Audio
  32. ID : 2
  33. Format : E-AC-3
  34. Format/Info : Enhanced AC-3
  35. Commercial name : Dolby Digital Plus
  36. Codec ID : A_EAC3
  37. Duration : 1 h 47 min
  38. Bit rate mode : Constant
  39. Bit rate : 640 kb/s
  40. Channel(s) : 6 channels
  41. Channel layout : L R C LFE Ls Rs
  42. Sampling rate : 48.0 kHz
  43. Frame rate : 31.250 FPS (1536 SPF)
  44. Compression mode : Lossy
  45. Stream size : 494 MiB (4%)
  46. Title : DDP 5.1
  47. Language : English
  48. Service kind : Complete Main
  49. Default : No
  50. Forced : No

  51. Text
  52. ID : 3
  53. Format : UTF-8
  54. Codec ID : S_TEXT/UTF8
  55. Codec ID/Info : UTF-8 Plain Text
  56. Duration : 1 h 35 min
  57. Bit rate : 38 b/s
  58. Count of elements : 1003
  59. Stream size : 26.7 KiB (0%)
  60. Language : English
  61. Default : Yes
  62. Forced : No
复制代码

一级任务(台) / 迷惘星空 / 旅行者 / 远航者/太空异旅4K.Voyagers.2021.2160p.AMZN.WEB-DL.x265.10bit.HDR10Plus.DDP5.1-4K电影下载

太空异旅4K.Voyagers.2021.2160p.AMZN.WEB-DL.x265.10bit.HDR10Plus.DDP5.1【4K HDR 11.34 GB 】
[Hao4K]太空异旅4K.Voyagers.2021.2160p.AMZN.WEB-DL.x265.10bit.HDR10Plus.DDP5.1-SW.torrent (57.35 KB, 售价: 2 K币)
回复

使用道具 举报

全部回复54

dragon_walk 发表于 2021-4-30 15:50:38

dragon_walk 沙发

2021-4-30 15:50:38

看着不错啊
回复 支持 反对

使用道具 举报

dragon_walk 发表于 2021-4-30 15:50:53

dragon_walk 板凳

2021-4-30 15:50:53

科幻题材的,最喜欢
回复 支持 反对

使用道具 举报

lqsong 发表于 2021-4-30 15:53:08

lqsong 地板

2021-4-30 15:53:08

感谢分享假日观赏!
回复 支持 反对

使用道具 举报

特种部队Z 发表于 2021-4-30 16:03:15

特种部队Z 5#

2021-4-30 16:03:15

很有意思的构思。
回复 支持 反对

使用道具 举报

tyb888 发表于 2021-4-30 16:08:36

tyb888 6#

2021-4-30 16:08:36

这个很奇妙
回复 支持 反对

使用道具 举报

hunterj 发表于 2021-4-30 17:24:55

hunterj 7#

2021-4-30 17:24:55

看看大片
回复 支持 反对

使用道具 举报

bbgrnnji 发表于 2021-4-30 17:42:49

bbgrnnji 8#

2021-4-30 17:42:49

谢谢楼主分享
回复 支持 反对

使用道具 举报

haoyumin 发表于 2021-4-30 17:52:10

haoyumin 9#

2021-4-30 17:52:10


谢谢楼主分享
回复 支持 反对

使用道具 举报

gtlz24780 发表于 2021-4-30 18:02:33

gtlz24780 10#

2021-4-30 18:02:33

喜欢这个题材
回复 支持 反对

使用道具 举报

libooo 发表于 2021-4-30 18:56:29

libooo 11#

2021-4-30 18:56:29


谢谢楼主分享
回复 支持 反对

使用道具 举报

H彬彬有礼B 发表于 2021-4-30 19:07:03

H彬彬有礼B 12#

2021-4-30 19:07:03

有中文字幕吗
回复 支持 反对

使用道具 举报

木村小林 发表于 2021-4-30 19:39:21

木村小林 13#

2021-4-30 19:39:21

奇待中文字幕
回复 支持 反对

使用道具 举报

ARFEI 发表于 2021-4-30 20:07:31

ARFEI 14#

2021-4-30 20:07:31

看看新片,多谢分享
回复 支持 反对

使用道具 举报

watano 发表于 2021-4-30 20:25:29

watano 15#

2021-4-30 20:25:29

看评论是个不错额奇幻。
回复 支持 反对

使用道具 举报

亿万粉丝 发表于 2021-4-30 20:46:15

亿万粉丝 16#

2021-4-30 20:46:15

这个是新影片。好棒。
回复 支持 反对

使用道具 举报

h2325124 发表于 2021-4-30 21:07:20

h2325124 17#

2021-4-30 21:07:20

新片,下载看看
回复 支持 反对

使用道具 举报

yale 发表于 2021-4-30 21:24:17

yale 18#

2021-4-30 21:24:17

谢谢分享
回复 支持 反对

使用道具 举报

   发表回复

您需要登录后才可以回帖 登录 | 立即注册

返回列表 本版积分规则

  • 在线客服

  • 返回顶部