微博 微信

Hao4K影音

电影频道
电影封面:
片  名: 22大战地球4k
电影分类: 冒险 喜剧 奇幻 动画 
国  家: 美国 
年  代: 2021年
分 辨 率: 4K(3840x2160)
电影格式: MKV|REMUX 
画质标准: HDR 
音质编码: Dolby Digital Plus Audio 
电影声道: 5.1声道 
帧数/FPS: 23.976 帧
电影语言: 英文原版 
资源大小: 668.68 MB GB
导  演: 凯文·诺尔廷
豆瓣评分:
中文字幕: -
剧情简介: 故事背景设定在迪士尼·皮克斯的《心灵奇旅》之前。22违反了生之来处的规则,拒绝去地球,招募了另外五个新的灵魂来试图反叛。
  然而,由于同伙们的活动导致了意料之外的结果,22的颠覆性密谋实际上可能会意外揭示出生命的意义。
《心灵奇旅》番外短片 / 《心灵奇旅》前传短片/22大战地球4k 22.vs.Earth.2021.2160p.DSNP.WEBRip.x265.10bit.HDR.DDP5.1.Atmos电影信息
  1. Video
  2. ID : 1
  3. Format : HEVC
  4. Format/Info : High Efficiency Video Coding
  5. Format profile : Main 10@L5@High
  6. Codec ID : V_MPEGH/ISO/HEVC
  7. Duration : 5 min 37 s
  8. Bit rate : 15.9 Mb/s
  9. Width : 3 840 pixels
  10. Height : 2 160 pixels
  11. Display aspect ratio : 16:9
  12. Frame rate mode : Constant
  13. Frame rate : 23.976 (24000/1001) FPS
  14. Color space : YUV
  15. Chroma subsampling : 4:2:0
  16. Bit depth : 10 bits
  17. Bits/(Pixel*Frame) : 0.080
  18. Stream size : 638 MiB (95%)
  19. Default : Yes
  20. Forced : No
  21. Color range : Limited
  22. Color primaries : BT.2020
  23. Transfer characteristics : PQ
  24. Matrix coefficients : BT.2020 non-constant

  25. Audio
  26. ID : 2
  27. Format : E-AC-3 JOC
  28. Format/Info : Enhanced AC-3 with Joint Object Coding
  29. Commercial name : Dolby Digital Plus with Dolby Atmos
  30. Codec ID : A_EAC3
  31. Duration : 5 min 37 s
  32. Bit rate mode : Constant
  33. Bit rate : 768 kb/s
  34. Channel(s) : 6 channels
  35. Channel layout : L R C LFE Ls Rs
  36. Sampling rate : 48.0 kHz
  37. Frame rate : 31.250 FPS (1536 SPF)
  38. Compression mode : Lossy
  39. Stream size : 30.9 MiB (5%)
  40. Title : English
  41. Language : English
  42. Service kind : Complete Main
  43. Default : No
  44. Forced : No
  45. Complexity index : 16
  46. Number of dynamic objects : 15
  47. Bed channel count : 1 channel
  48. Bed channel configuration : LFE

  49. Text #1
  50. ID : 3
  51. Format : UTF-8
  52. Codec ID : S_TEXT/UTF8
  53. Codec ID/Info : UTF-8 Plain Text
  54. Duration : 5 min 26 s
  55. Bit rate : 75 b/s
  56. Count of elements : 101
  57. Stream size : 3.02 KiB (0%)
  58. Title : French
  59. Language : French
  60. Default : No
  61. Forced : No

  62. Text #2
  63. ID : 4
  64. Format : UTF-8
  65. Codec ID : S_TEXT/UTF8
  66. Codec ID/Info : UTF-8 Plain Text
  67. Duration : 5 min 26 s
  68. Bit rate : 90 b/s
  69. Count of elements : 112
  70. Stream size : 3.59 KiB (0%)
  71. Title : English [SDH]
  72. Language : English
  73. Default : No
  74. Forced : No

  75. Text #3
  76. ID : 5
  77. Format : UTF-8
  78. Codec ID : S_TEXT/UTF8
  79. Codec ID/Info : UTF-8 Plain Text
  80. Duration : 5 min 25 s
  81. Bit rate : 68 b/s
  82. Count of elements : 102
  83. Stream size : 2.74 KiB (0%)
  84. Title : German
  85. Language : German
  86. Default : No
  87. Forced : No

  88. Text #4
  89. ID : 6
  90. Format : UTF-8
  91. Codec ID : S_TEXT/UTF8
  92. Codec ID/Info : UTF-8 Plain Text
  93. Duration : 5 min 26 s
  94. Bit rate : 71 b/s
  95. Count of elements : 85
  96. Stream size : 2.86 KiB (0%)
  97. Title : Dutch
  98. Language : Dutch
  99. Default : No
  100. Forced : No

  101. Text #5
  102. ID : 7
  103. Format : UTF-8
  104. Codec ID : S_TEXT/UTF8
  105. Codec ID/Info : UTF-8 Plain Text
  106. Duration : 5 min 26 s
  107. Bit rate : 78 b/s
  108. Count of elements : 105
  109. Stream size : 3.11 KiB (0%)
  110. Title : Polish
  111. Language : Polish
  112. Default : No
  113. Forced : No

  114. Text #6
  115. ID : 8
  116. Format : UTF-8
  117. Codec ID : S_TEXT/UTF8
  118. Codec ID/Info : UTF-8 Plain Text
  119. Duration : 5 min 26 s
  120. Bit rate : 80 b/s
  121. Count of elements : 107
  122. Stream size : 3.20 KiB (0%)
  123. Title : Spanish
  124. Language : Spanish
  125. Default : No
  126. Forced : No

  127. Text #7
  128. ID : 9
  129. Format : UTF-8
  130. Codec ID : S_TEXT/UTF8
  131. Codec ID/Info : UTF-8 Plain Text
  132. Duration : 5 min 18 s
  133. Bit rate : 85 b/s
  134. Count of elements : 104
  135. Stream size : 3.34 KiB (0%)
  136. Title : English
  137. Language : English
  138. Default : No
  139. Forced : No

  140. Text #8
  141. ID : 10
  142. Format : UTF-8
  143. Codec ID : S_TEXT/UTF8
  144. Codec ID/Info : UTF-8 Plain Text
  145. Duration : 5 min 26 s
  146. Bit rate : 79 b/s
  147. Count of elements : 70
  148. Stream size : 3.18 KiB (0%)
  149. Title : Danish
  150. Language : Danish
  151. Default : No
  152. Forced : No

  153. Text #9
  154. ID : 11
  155. Format : UTF-8
  156. Codec ID : S_TEXT/UTF8
  157. Codec ID/Info : UTF-8 Plain Text
  158. Duration : 5 min 26 s
  159. Bit rate : 79 b/s
  160. Count of elements : 107
  161. Stream size : 3.19 KiB (0%)
  162. Title : Italian
  163. Language : Italian
  164. Default : No
  165. Forced : No

  166. Text #10
  167. ID : 12
  168. Format : UTF-8
  169. Codec ID : S_TEXT/UTF8
  170. Codec ID/Info : UTF-8 Plain Text
  171. Duration : 5 min 26 s
  172. Bit rate : 77 b/s
  173. Count of elements : 107
  174. Stream size : 3.09 KiB (0%)
  175. Title : European Spanish
  176. Language : Spanish
  177. Default : No
  178. Forced : No

  179. Text #11
  180. ID : 13
  181. Format : UTF-8
  182. Codec ID : S_TEXT/UTF8
  183. Codec ID/Info : UTF-8 Plain Text
  184. Duration : 5 min 26 s
  185. Bit rate : 77 b/s
  186. Count of elements : 107
  187. Stream size : 3.07 KiB (0%)
  188. Title : Portuguese
  189. Language : Portuguese
  190. Default : No
  191. Forced : No

  192. Text #12
  193. ID : 14
  194. Format : UTF-8
  195. Codec ID : S_TEXT/UTF8
  196. Codec ID/Info : UTF-8 Plain Text
  197. Duration : 5 min 26 s
  198. Bit rate : 74 b/s
  199. Count of elements : 107
  200. Stream size : 2.95 KiB (0%)
  201. Title : Norwegian
  202. Language : Norwegian
  203. Default : No
  204. Forced : No

  205. Text #13
  206. ID : 15
  207. Format : UTF-8
  208. Codec ID : S_TEXT/UTF8
  209. Codec ID/Info : UTF-8 Plain Text
  210. Duration : 5 min 26 s
  211. Bit rate : 78 b/s
  212. Count of elements : 87
  213. Stream size : 3.12 KiB (0%)
  214. Title : Swedish
  215. Language : Swedish
  216. Default : No
  217. Forced : No

  218. Text #14
  219. ID : 16
  220. Format : UTF-8
  221. Codec ID : S_TEXT/UTF8
  222. Codec ID/Info : UTF-8 Plain Text
  223. Duration : 5 min 26 s
  224. Bit rate : 77 b/s
  225. Count of elements : 106
  226. Stream size : 3.11 KiB (0%)
  227. Title : Brazilian Portuguese
  228. Language : Portuguese
  229. Default : No
  230. Forced : No

  231. Text #15
  232. ID : 17
  233. Format : UTF-8
  234. Codec ID : S_TEXT/UTF8
  235. Codec ID/Info : UTF-8 Plain Text
  236. Duration : 5 min 26 s
  237. Bit rate : 75 b/s
  238. Count of elements : 101
  239. Stream size : 3.02 KiB (0%)
  240. Title : French Canadian
  241. Language : French
  242. Default : No
  243. Forced : No

  244. Text #16
  245. ID : 18
  246. Format : UTF-8
  247. Codec ID : S_TEXT/UTF8
  248. Codec ID/Info : UTF-8 Plain Text
  249. Duration : 5 min 26 s
  250. Bit rate : 78 b/s
  251. Count of elements : 107
  252. Stream size : 3.12 KiB (0%)
  253. Title : Finnish
  254. Language : Finnish
  255. Default : No
  256. Forced : No
复制代码


《心灵奇旅》番外短片 / 《心灵奇旅》前传短片/22大战地球4k 22.vs.Earth.2021.2160p.DSNP.WEBRip.x265.10bit.HDR.DDP5.1.Atmos电影下载

22大战地球4k 22.vs.Earth.2021.2160p.DSNP.WEBRip.x265.10bit.HDR.DDP5.1.Atmos【668.68 MB】
[Hao4k]22大战地球4k 22.vs.Earth.2021.2160p.DSNP.WEBRip.x265.10bit.HDR.DDP5.1.Atm.torrent (13.71 KB)
回复

使用道具 举报

全部回复25

13556701581HH 发表于 2021-4-30 16:42:10

13556701581HH 沙发

2021-4-30 16:42:10

有没有字幕啊
回复 支持 反对

使用道具 举报

ARFEI 发表于 2021-4-30 20:05:49

ARFEI 板凳

2021-4-30 20:05:49

只有600多M的4K,好看吗?
回复 支持 0 反对 1

使用道具 举报

yale 发表于 2021-4-30 21:23:31

yale 地板

2021-4-30 21:23:31

谢谢分享
回复 支持 反对

使用道具 举报

aftok123 发表于 2021-4-30 22:00:53

aftok123 5#

2021-4-30 22:00:53

668.68 MB GB有多大
回复 支持 反对

使用道具 举报

忠爱红魔炸鸡翅 发表于 2021-4-30 22:22:45

忠爱红魔炸鸡翅 6#

2021-4-30 22:22:45

ARFEI 发表于 2021-4-30 20:05
只有600多M的4K,好看吗?

5分37秒的短片,你要多大?
回复 支持 反对

使用道具 举报

小李看彩 发表于 2021-4-30 23:01:03

小李看彩 7#

2021-4-30 23:01:03

谢谢楼主好看
回复 支持 反对

使用道具 举报

街头棒士 发表于 2021-5-1 08:43:54

街头棒士 8#

2021-5-1 08:43:54

谢谢楼主
回复 支持 反对

使用道具 举报

Mathk 发表于 2021-5-1 13:19:55

Mathk 9#

2021-5-1 13:19:55

Thanks a  loks ........ !!!
回复 支持 反对

使用道具 举报

无名氏930 发表于 2021-5-1 13:59:20

无名氏930 10#

2021-5-1 13:59:20

谢谢楼主
回复 支持 反对

使用道具 举报

bonna 发表于 2021-5-1 15:42:27

bonna 11#

2021-5-1 15:42:27

《心灵奇旅》之前。
回复 支持 1 反对 0

使用道具 举报

andywjhh 发表于 2021-5-1 15:49:23

andywjhh 12#

2021-5-1 15:49:23

好资源很给力
回复 支持 反对

使用道具 举报

珊瑚坝放风筝 发表于 2021-5-1 18:53:12

珊瑚坝放风筝 13#

2021-5-1 18:53:12

谢谢楼主分享
回复 支持 反对

使用道具 举报

ml1557955 发表于 2021-5-1 22:14:55 Hao4K手机版

ml1557955 14#

2021-5-1 22:14:55

有字幕分享吗 感谢
回复 支持 反对

使用道具 举报

qw15022569913 发表于 7 天前

qw15022569913 15#

7 天前

谢谢分享
回复 支持 反对

使用道具 举报

lin391082930 发表于 6 天前 Hao4K手机版

lin391082930 16#

6 天前

好好
回复 支持 反对

使用道具 举报

danielxiaoke 发表于 6 天前

danielxiaoke 17#

6 天前

ARFEI 发表于 2021-4-30 20:05
只有600多M的4K,好看吗?

心灵奇旅的衍生片
回复 支持 反对

使用道具 举报

Danliver 发表于 6 天前

Danliver 18#

6 天前

那位大佬能提供下字幕啊,连英文字幕都木有啊
回复 支持 反对

使用道具 举报

   发表回复

您需要登录后才可以回帖 登录 | 立即注册

返回列表 本版积分规则

  • 在线客服

  • 返回顶部