微博 微信

Hao4K影音

[美剧] 太阳召唤4k Shadow.and.Bone.S01美剧下载

7 天前 41664 15 |只看大图 回帖奖励 |倒序浏览 |阅读模式

大红色 楼主

2021-4-30 16:37:23

电视剧频道
电视剧封面:
电视剧名: 太阳召唤4k
年  代: 2021  
国  家: 美国
类  别: 动作 剧情 奇幻 
语  言: 英语
字  幕: 英文原版
上映日期: 2021-04-23
文件格式: mkv    
视频效果: 4K(3840x2160)    
资源大小: 38.61 GB
片  长: 50 分钟
导  演: 万尼亚·阿瑟 / Daegan Fryklind / 埃里克·海瑟尔
剧情简介: 《太阳召唤》根据利·巴杜戈全球畅销的“格里莎世界”小说改编,故事背景设定在一个饱受战争蹂躏的世界里,底层士兵、孤女阿丽娜·斯达科夫突然施展出一种非凡的力量,这可能是让她的国家重获自由的关键。随着暗影黑幕巨大威胁的迫近,阿丽娜被迫远离她所熟知的一切,并受训成为格里莎魔法精英军队的一员。但就在她努力磨练自己的力量时,她发现盟友和敌人可以是同一个人,而在这个繁华的世界里,一切都暗藏玄机。危险的力量正在崛起,其中包括一群魅力超凡的罪犯,要想生存下去,光靠魔法是不够的。《太阳召唤》是由 21 Laps Entertainment 出品的 Netflix 剧集,主演阵容包括洁西·梅·李(阿丽娜·斯达科夫)、阿奇·雷诺(玛里安·奥勒瑟夫)、弗莱迪·卡特(卡兹·布瑞克)、阿米塔·休曼(伊奈什)、基特·扬(杰斯帕·费伊)和本·巴恩斯(奇利甘将军)。
太阳召唤 4k Shadow.and.Bone.S01.2160p.NF.WEBRip.x265.10bit.HDR.DDP5.1.Atmos美剧信息
  1. Video
  2. ID : 1
  3. Format : HEVC
  4. Format/Info : High Efficiency Video Coding
  5. Format profile : Main 10@L5.1@High
  6. HDR format : SMPTE ST 2086, HDR10 compatible
  7. Codec ID : V_MPEGH/ISO/HEVC
  8. Duration : 56 min 58 s
  9. Bit rate : 13.6 Mb/s
  10. Width : 3 840 pixels
  11. Height : 1 744 pixels
  12. Display aspect ratio : 2.2:1
  13. Frame rate mode : Constant
  14. Frame rate : 23.976 (24000/1001) FPS
  15. Color space : YUV
  16. Chroma subsampling : 4:2:0 (Type 2)
  17. Bit depth : 10 bits
  18. Bits/(Pixel*Frame) : 0.085
  19. Stream size : 5.41 GiB (94%)
  20. Writing library : x265 3.4+32-b24459657:[Windows][GCC 9.3.0][64 bit] 10bit
  21. Default : Yes
  22. Forced : No
  23. Color range : Limited
  24. Color primaries : BT.2020
  25. Transfer characteristics : PQ
  26. Matrix coefficients : BT.2020 non-constant
  27. Mastering display color primaries : Display P3
  28. Mastering display luminance : min: 0.0001 cd/m2, max: 1000 cd/m2
  29. Maximum Content Light Level : 1180 cd/m2
  30. Maximum Frame-Average Light Level : 260 cd/m2

  31. Audio
  32. ID : 2
  33. Format : E-AC-3 JOC
  34. Format/Info : Enhanced AC-3 with Joint Object Coding
  35. Commercial name : Dolby Digital Plus with Dolby Atmos
  36. Codec ID : A_EAC3
  37. Duration : 58 min 21 s
  38. Bit rate mode : Constant
  39. Bit rate : 768 kb/s
  40. Channel(s) : 6 channels
  41. Channel layout : L R C LFE Ls Rs
  42. Sampling rate : 48.0 kHz
  43. Frame rate : 31.250 FPS (1536 SPF)
  44. Bit depth : 32 bits
  45. Compression mode : Lossy
  46. Delay relative to video : 16 ms
  47. Stream size : 321 MiB (5%)
  48. Language : English
  49. Service kind : Complete Main
  50. Default : Yes
  51. Forced : No
  52. Complexity index : 16
  53. Number of dynamic objects : 15
  54. Bed channel count : 1 channel
  55. Bed channel configuration : LFE

  56. Text #1
  57. ID : 3
  58. Format : UTF-8
  59. Codec ID : S_TEXT/UTF8
  60. Codec ID/Info : UTF-8 Plain Text
  61. Duration : 52 min 36 s
  62. Bit rate : 53 b/s
  63. Count of elements : 658
  64. Stream size : 20.7 KiB (0%)
  65. Title : SDH
  66. Language : English
  67. Default : No
  68. Forced : No

  69. Text #2
  70. ID : 4
  71. Format : UTF-8
  72. Codec ID : S_TEXT/UTF8
  73. Codec ID/Info : UTF-8 Plain Text
  74. Duration : 56 min 43 s
  75. Bit rate : 42 b/s
  76. Count of elements : 554
  77. Stream size : 17.5 KiB (0%)
  78. Title : Latin American
  79. Language : Spanish
  80. Default : No
  81. Forced : No

  82. Text #3
  83. ID : 5
  84. Format : UTF-8
  85. Codec ID : S_TEXT/UTF8
  86. Codec ID/Info : UTF-8 Plain Text
  87. Duration : 56 min 43 s
  88. Bit rate : 39 b/s
  89. Count of elements : 554
  90. Stream size : 16.5 KiB (0%)
  91. Language : Spanish
  92. Default : No
  93. Forced : No

  94. Text #4
  95. ID : 6
  96. Format : UTF-8
  97. Codec ID : S_TEXT/UTF8
  98. Codec ID/Info : UTF-8 Plain Text
  99. Duration : 56 min 43 s
  100. Bit rate : 39 b/s
  101. Count of elements : 554
  102. Stream size : 16.4 KiB (0%)
  103. Title : Brazilian
  104. Language : Portuguese
  105. Default : No
  106. Forced : No

  107. Text #5
  108. ID : 7
  109. Format : UTF-8
  110. Codec ID : S_TEXT/UTF8
  111. Codec ID/Info : UTF-8 Plain Text
  112. Duration : 56 min 43 s
  113. Bit rate : 39 b/s
  114. Count of elements : 554
  115. Stream size : 16.3 KiB (0%)
  116. Language : German
  117. Default : No
  118. Forced : No

  119. Text #6
  120. ID : 8
  121. Format : UTF-8
  122. Codec ID : S_TEXT/UTF8
  123. Codec ID/Info : UTF-8 Plain Text
  124. Duration : 56 min 43 s
  125. Bit rate : 42 b/s
  126. Count of elements : 545
  127. Stream size : 17.6 KiB (0%)
  128. Language : French
  129. Default : No
  130. Forced : No
复制代码


太阳召唤 4k Shadow.and.Bone.S01.2160p.NF.WEBRip.x265.10bit.HDR.DDP5.1.Atmos美剧下载

太阳召唤 4k Shadow.and.Bone.S01.2160p.NF.WEBRip.x265.10bit.HDR.DDP5.1.Atmos【38.61 GB】
[Hao4k]太阳召唤4k Shadow.and.Bone.S01.2160p.NF.WEBRip.x265.10bit.HDR.DDP5.1.Atmo.torrent (97.85 KB)

评分

参与人数 1K币 +5 收起 理由
热巴的小迷第 + 5 很给力! 很喜欢看这类美剧 女主好漂亮

查看全部评分

回复

使用道具 举报

全部回复15

chbo 发表于 2021-5-1 11:43:10

chbo 沙发

2021-5-1 11:43:10

感谢分享
回复 支持 反对

使用道具 举报

18621984421 发表于 2021-5-1 12:41:58

18621984421 板凳

2021-5-1 12:41:58

不是应该带中文字幕的嘛
回复 支持 反对

使用道具 举报

亿万粉丝 发表于 2021-5-1 22:49:36

亿万粉丝 地板

2021-5-1 22:49:36

这个剧不错,收藏一个是可以的,期待第二季。。
回复 支持 反对

使用道具 举报

wzdlpc 发表于 2021-5-2 08:40:10

wzdlpc 5#

2021-5-2 08:40:10

谢谢LZ,五一正好看看网飞的新剧。
回复 支持 反对

使用道具 举报

月光麦田 发表于 2021-5-2 14:36:54

月光麦田 6#

2021-5-2 14:36:54

谢谢分享
回复 支持 反对

使用道具 举报

1010chao 发表于 2021-5-4 08:37:20

1010chao 7#

2021-5-4 08:37:20

好东西 谢谢楼主
回复 支持 反对

使用道具 举报

dyczw 发表于 2021-5-4 09:13:35

dyczw 8#

2021-5-4 09:13:35

感谢分享,辛苦了
回复 支持 反对

使用道具 举报

yzguan 发表于 2021-5-5 12:16:23

yzguan 9#

2021-5-5 12:16:23

这部美剧有在关注
回复 支持 反对

使用道具 举报

littletart 发表于 2021-5-5 17:55:07

littletart 10#

2021-5-5 17:55:07

多谢分享,这剧值得
回复 支持 反对

使用道具 举报

lianxi68 发表于 2021-5-6 08:02:37

lianxi68 11#

2021-5-6 08:02:37

谢谢分享
回复 支持 反对

使用道具 举报

MarvinTeng 发表于 2021-5-6 09:56:11

MarvinTeng 12#

2021-5-6 09:56:11

谢谢分享
回复 支持 反对

使用道具 举报

hnluyi2018 发表于 2021-5-6 15:41:59

hnluyi2018 13#

2021-5-6 15:41:59

据说此剧不错,谢谢分享。。!
回复 支持 反对

使用道具 举报

热巴的小迷第 发表于 2021-5-6 21:18:18

热巴的小迷第 14#

2021-5-6 21:18:18

看完前来下4K收藏 很好看 很久没有追剧了 已经在期待第二季了,辛苦分享
回复 支持 反对

使用道具 举报

luckeyliu 发表于 2021-5-8 16:00:32

luckeyliu 15#

2021-5-8 16:00:32

Netflix上已经看完,好看
回复 支持 反对

使用道具 举报

我知道的 发表于 7 天前

我知道的 16#

7 天前

不错 网飞的电视剧
回复 支持 反对

使用道具 举报

   发表回复

您需要登录后才可以回帖 登录 | 立即注册

返回列表 本版积分规则

:
白银玩家
:
未填写

主题

帖子

积分1075

图文推荐

  • 不用madVR也能正确显示HDR——新版PotPlaye

    用PC看视频的朋友多多少少都用过PotPlayer这个神

  • 教你如何制做自已喜欢的字幕 (上)

    一部好片源自然需要自已喜欢的字幕,正如才子与佳

  • 隐藏式音箱5.1家庭影院案例

    为什么论坛没有人像我一样做这种隐形音箱方案呢?

  • 昨晚重温了《生死时速》4K版,这部经典大片

    昨晚重温了《生死时速》4K版,这部经典大片。记得

  • 买到这样爱普生tw7000机器是不是中奖了

    新人首贴。请求关爱。 我这个星期买了心仪已久的

  • 电锯惊魂9:漩涡将发布4K UHD蓝光影碟

    【美影 4K】电锯惊魂9:漩涡上映后将发布4K UHD

  • 在线客服

  • 返回顶部