微博 微信

Hao4K影音

电影频道
电影封面:
片  名: 侵入者4k
电影分类: 惊悚 
国  家: 美国 
年  代: 2019年
分 辨 率: 4K(3840x2160)
电影格式: MKV|REMUX 
画质标准: HDR 
音质编码: Dolby Digital Audio DTS-HD Master Audio 
电影声道:  
帧数/FPS: 23.976 帧
电影语言: 英文原版 
资源大小: 55.68 GB
导  演: 德翁·泰勒
豆瓣评分: 5.8 分
中文字幕: -
剧情简介: 这是一部心理惊悚片,讲述了一对年轻的已婚夫妇在几英亩土地上买了一栋漂亮的纳帕谷房子,结果他们却发现卖家拒绝交房。
声魔入侵(台)/侵入者4k The.Intruder.2019.2160p.BCORE.WEB-DL.x265.10bit.HDR.DTS-HD.MA.5.1电影信息
  1. Video
  2. ID : 1
  3. Format : HEVC
  4. Format/Info : High Efficiency Video Coding
  5. Format profile : Main 10@L5.2@High
  6. HDR format : SMPTE ST 2086, HDR10 compatible
  7. Codec ID : V_MPEGH/ISO/HEVC
  8. Duration : 1 h 42 min
  9. Bit rate : 73.7 Mb/s
  10. Width : 3 840 pixels
  11. Height : 2 160 pixels
  12. Display aspect ratio : 16:9
  13. Frame rate mode : Constant
  14. Frame rate : 23.976 (24000/1001) FPS
  15. Color space : YUV
  16. Chroma subsampling : 4:2:0 (Type 2)
  17. Bit depth : 10 bits
  18. Bits/(Pixel*Frame) : 0.371
  19. Stream size : 52.5 GiB (95%)
  20. Language : English
  21. Default : Yes
  22. Forced : No
  23. Color range : Limited
  24. Color primaries : BT.2020
  25. Transfer characteristics : PQ
  26. Matrix coefficients : BT.2020 non-constant
  27. Mastering display color primaries : Display P3
  28. Mastering display luminance : min: 0.0050 cd/m2, max: 4000 cd/m2
  29. Maximum Content Light Level : 2082 cd/m2
  30. Maximum Frame-Average Light Level : 593 cd/m2

  31. Audio #1
  32. ID : 2
  33. Format : DTS XLL
  34. Format/Info : Digital Theater Systems
  35. Commercial name : DTS-HD Master Audio
  36. Codec ID : A_DTS
  37. Duration : 1 h 41 min
  38. Bit rate mode : Variable
  39. Bit rate : 2 166 kb/s
  40. Channel(s) : 6 channels
  41. Channel layout : C L R Ls Rs LFE
  42. Sampling rate : 48.0 kHz
  43. Frame rate : 93.750 FPS (512 SPF)
  44. Bit depth : 16 bits
  45. Compression mode : Lossless
  46. Delay relative to video : 4 ms
  47. Stream size : 1.54 GiB (3%)
  48. Title : DTS-HD MA 5.1
  49. Language : English
  50. Default : Yes
  51. Forced : No

  52. Audio #2
  53. ID : 3
  54. Format : DTS
  55. Format/Info : Digital Theater Systems
  56. Codec ID : A_DTS
  57. Duration : 1 h 42 min
  58. Bit rate mode : Constant
  59. Bit rate : 768 kb/s
  60. Channel(s) : 6 channels
  61. Channel layout : C L R Ls Rs LFE
  62. Sampling rate : 48.0 kHz
  63. Frame rate : 93.750 FPS (512 SPF)
  64. Bit depth : 24 bits
  65. Compression mode : Lossy
  66. Stream size : 561 MiB (1%)
  67. Language : English
  68. Default : No
  69. Forced : No

  70. Audio #3
  71. ID : 4
  72. Format : AC-3
  73. Format/Info : Audio Coding 3
  74. Commercial name : Dolby Digital
  75. Codec ID : A_AC3
  76. Duration : 1 h 42 min
  77. Bit rate mode : Constant
  78. Bit rate : 640 kb/s
  79. Channel(s) : 6 channels
  80. Channel layout : L R C LFE Ls Rs
  81. Sampling rate : 48.0 kHz
  82. Frame rate : 31.250 FPS (1536 SPF)
  83. Compression mode : Lossy
  84. Stream size : 467 MiB (1%)
  85. Language : English
  86. Service kind : Complete Main
  87. Default : No
  88. Forced : No

  89. Text
  90. ID : 5
  91. Format : UTF-8
  92. Codec ID : S_TEXT/UTF8
  93. Codec ID/Info : UTF-8 Plain Text
  94. Duration : 1 h 34 min
  95. Bit rate : 62 b/s
  96. Count of elements : 1499
  97. Stream size : 43.2 KiB (0%)
  98. Language : English
  99. Default : Yes
  100. Forced : No

  101. Menu
  102. 00:00:00.000 : Chapter 1
  103. 00:03:35.590 : Chapter 2
  104. 00:11:51.460 : Chapter 3
  105. 00:16:14.264 : Chapter 4
  106. 00:20:10.792 : Chapter 5
  107. 00:25:31.196 : Chapter 6
  108. 00:30:50.139 : Chapter 7
  109. 00:36:18.509 : Chapter 8
  110. 00:40:45.734 : Chapter 9
  111. 00:45:30.853 : Chapter 10
  112. 00:50:15.178 : Chapter 11
  113. 00:56:59.249 : Chapter 12
  114. 01:02:12.270 : Chapter 13
  115. 01:08:56.507 : Chapter 14
  116. 01:14:16.285 : Chapter 15
  117. 01:23:50.025 : Chapter 16
复制代码

声魔入侵(台)/侵入者4k The.Intruder.2019.2160p.BCORE.WEB-DL.x265.10bit.HDR.DTS-HD.MA.5.1电影下载

侵入者4k The.Intruder.2019.2160p.BCORE.WEB-DL.x265.10bit.HDR.DTS-HD.MA.5.1【55.08 GB】
[Hao4k]侵入者4k The.Intruder.2019.2160p.BCORE.WEB-DL.x265.10bit.HDR.DTS-HD.MA.5..torrent (138.38 KB, 售价: 2 K币)
回复

使用道具 举报

全部回复24

hunterj 发表于 2021-4-30 17:26:07

hunterj 沙发

2021-4-30 17:26:07

沙发。。。。。。。。。。。。。。
回复 支持 反对

使用道具 举报

jintao7863 发表于 2021-4-30 19:47:30

jintao7863 板凳

2021-4-30 19:47:30

期待很久了,爽啊
回复 支持 反对

使用道具 举报

Hobin 发表于 2021-4-30 20:16:09 Hao4K手机版

Hobin 地板

2021-4-30 20:16:09

恐怖吗?
回复 支持 反对

使用道具 举报

yale 发表于 2021-4-30 21:22:31

yale 5#

2021-4-30 21:22:31

谢谢分享
回复 支持 反对

使用道具 举报

flymouse 发表于 2021-4-30 22:02:04

flymouse 6#

2021-4-30 22:02:04

期待很久了,爽啊
回复 支持 反对

使用道具 举报

aftok123 发表于 2021-4-30 22:02:06

aftok123 7#

2021-4-30 22:02:06

惊悚  好看吗
回复 支持 反对

使用道具 举报

小李看彩 发表于 2021-4-30 23:00:39

小李看彩 8#

2021-4-30 23:00:39

谢谢谢谢分享
回复 支持 反对

使用道具 举报

iris6267 发表于 2021-5-1 08:04:04

iris6267 9#

2021-5-1 08:04:04

谢谢分享
回复 支持 反对

使用道具 举报

dk30129 发表于 2021-5-1 09:15:38

dk30129 10#

2021-5-1 09:15:38

谢谢分享,顶你!!!
回复 支持 反对

使用道具 举报

威海一米阳光 发表于 2021-5-1 10:24:05

威海一米阳光 11#

2021-5-1 10:24:05

低于6分的电影从不看,浪费宝贵时间,谢谢资源!
回复 支持 反对

使用道具 举报

andywjhh 发表于 2021-5-1 16:37:27

andywjhh 12#

2021-5-1 16:37:27

好资源很给力
回复 支持 反对

使用道具 举报

mz3555 发表于 2021-5-1 18:52:19

mz3555 13#

2021-5-1 18:52:19


谢谢分享
回复 支持 反对

使用道具 举报

r_sheng 发表于 2021-5-1 21:45:11

r_sheng 14#

2021-5-1 21:45:11

谢谢分享
回复 支持 反对

使用道具 举报

colinsino 发表于 2021-5-2 15:46:53

colinsino 15#

2021-5-2 15:46:53

谢谢资源!
回复 支持 反对

使用道具 举报

cuifyun 发表于 2021-5-2 16:48:23

cuifyun 16#

2021-5-2 16:48:23

谢谢分享
回复 支持 反对

使用道具 举报

qw15022569913 发表于 2021-5-2 23:59:00

qw15022569913 17#

2021-5-2 23:59:00

谢谢分享
回复 支持 反对

使用道具 举报

tlwlh 发表于 2021-5-4 09:20:00

tlwlh 18#

2021-5-4 09:20:00

好片,谢谢楼主
回复 支持 反对

使用道具 举报

   发表回复

您需要登录后才可以回帖 登录 | 立即注册

返回列表 本版积分规则

  • 在线客服

  • 返回顶部