微博 微信

Hao4K影音

电影频道
电影封面:
片  名: 野战排4K
电影分类: 动作 战争 剧情 
国  家: 美国 
年  代: 80年代
分 辨 率: 4K(3840x2160)
电影格式: MKV|REMUX 
画质标准: HDR10 
音质编码: DTS-HD Master Audio 
电影声道: 5.1声道 
帧数/FPS: 23.976 帧
电影语言: 英文原版 
资源大小: 15.21 GB
导  演: 奥利佛·斯通
豆瓣评分: 8.2 分
中文字幕: -
剧情简介: 泰勒(查理•辛 Charlie Sheen 饰)是越战期间的一名美国大学生,他前往越南前线去服兵役,被分到了一个步兵部队。部队里有两个人一直对他影响颇大——伊莱亚斯(威廉•达福 Willem Dafoe 饰)和巴恩斯(汤姆•贝伦杰 Tom Berenger 饰)。他们两人对战争的看法截然不同,前者不忍残杀无辜,而后者却杀人如麻,泰勒心里非常迷惑,到底谁对战争的看法才是正确。
  巴恩斯展开了一场残忍的屠杀,越南整条村落都流血成河。伊莱亚斯力劝好友不要如此残暴,却遭致二人关系的裂缝。巴恩斯更怀疑伊莱亚斯向上司打小报告,友谊变为妒恨。于是,在一次丛林战争中,他背着所有人,向伊莱亚斯扣下了扳机。
  泰勒却洞察了这一切,他心里终于有了答案
杀戮战场(港) / 前进高棉(台)/野战排4K.Platoon.1986.2160p.AMZN.WEB-DL.x265.10bit.HDR10Plus.DTS-HD.MA.5.1-4k电影信息
  1. Video
  2. ID : 1
  3. Format : HEVC
  4. Format/Info : High Efficiency Video Coding
  5. Format profile : Main 10@L5@Main
  6. HDR format : SMPTE ST 2094 App 4, Version 1, HDR10+ Profile B compatible
  7. Codec ID : V_MPEGH/ISO/HEVC
  8. Duration : 1 h 59 min
  9. Bit rate : 14.9 Mb/s
  10. Width : 3 840 pixels
  11. Height : 2 080 pixels
  12. Display aspect ratio : 1.85:1
  13. Frame rate mode : Constant
  14. Frame rate : 23.976 (24000/1001) FPS
  15. Color space : YUV
  16. Chroma subsampling : 4:2:0
  17. Bit depth : 10 bits
  18. Bits/(Pixel*Frame) : 0.078
  19. Stream size : 12.5 GiB (82%)
  20. Language : English
  21. Default : Yes
  22. Forced : No
  23. Color range : Limited
  24. Color primaries : BT.2020
  25. Transfer characteristics : PQ
  26. Matrix coefficients : BT.2020 non-constant
  27. Mastering display color primaries : BT.2020
  28. Mastering display luminance : min: 0.0050 cd/m2, max: 1000 cd/m2
  29. Maximum Content Light Level : 999 cd/m2
  30. Maximum Frame-Average Light Level : 738 cd/m2

  31. Audio #1
  32. ID : 2
  33. Format : DTS XLL
  34. Format/Info : Digital Theater Systems
  35. Commercial name : DTS-HD Master Audio
  36. Codec ID : A_DTS
  37. Duration : 1 h 59 min
  38. Bit rate mode : Variable
  39. Bit rate : 2 571 kb/s
  40. Channel(s) : 6 channels
  41. Channel layout : C L R Ls Rs LFE
  42. Sampling rate : 48.0 kHz
  43. Frame rate : 93.750 FPS (512 SPF)
  44. Bit depth : 24 bits
  45. Compression mode : Lossless
  46. Stream size : 2.15 GiB (14%)
  47. Title : DTS-HD MA 5.1
  48. Language : English
  49. Default : Yes
  50. Forced : No

  51. Audio #2
  52. ID : 3
  53. Format : E-AC-3
  54. Format/Info : Enhanced AC-3
  55. Commercial name : Dolby Digital Plus
  56. Codec ID : A_EAC3
  57. Duration : 1 h 59 min
  58. Bit rate mode : Constant
  59. Bit rate : 640 kb/s
  60. Channel(s) : 6 channels
  61. Channel layout : L R C LFE Ls Rs
  62. Sampling rate : 48.0 kHz
  63. Frame rate : 31.250 FPS (1536 SPF)
  64. Compression mode : Lossy
  65. Stream size : 549 MiB (4%)
  66. Title : DDP 5.1
  67. Language : English
  68. Service kind : Complete Main
  69. Default : No
  70. Forced : No

  71. Text
  72. ID : 4
  73. Format : UTF-8
  74. Codec ID : S_TEXT/UTF8
  75. Codec ID/Info : UTF-8 Plain Text
  76. Duration : 1 h 54 min
  77. Bit rate : 59 b/s
  78. Count of elements : 1620
  79. Stream size : 49.4 KiB (0%)
  80. Title : English
  81. Language : English
  82. Default : No
  83. Forced : No

  84. Menu
  85. 00:00:00.000 : Chapter 01
  86. 00:08:20.958 : Chapter 02
  87. 00:18:49.545 : Chapter 03
  88. 00:30:06.679 : Chapter 04
  89. 00:36:37.278 : Chapter 05
  90. 00:45:15.838 : Chapter 06
  91. 00:55:55.977 : Chapter 07
  92. 01:04:51.554 : Chapter 08
  93. 01:15:32.945 : Chapter 09
  94. 01:26:48.494 : Chapter 10
  95. 01:37:29.051 : Chapter 11
  96. 01:46:55.283 : Chapter 12
复制代码

杀戮战场(港) / 前进高棉(台)/野战排4K.Platoon.1986.2160p.AMZN.WEB-DL.x265.10bit.HDR10Plus.DTS-HD.MA.5.1-4K电影下载

野战排4K.Platoon.1986.2160p.AMZN.WEB-DL.x265.10bit.HDR10Plus.DTS-HD.MA.5.1【4K HDR 15.21 GB】
[Hao4K]野战排4K.Platoon.1986.2160p.AMZN.WEB-DL.x265.10bit.HDR10Plus.DTS-HD.MA.5..torrent (76.71 KB, 售价: 2 K币)
回复

使用道具 举报

全部回复62

永远乐着 发表于 6 天前

永远乐着 沙发

6 天前

喜欢战争电影,谢谢。
回复 支持 反对

使用道具 举报

WMTD-TBJT 发表于 6 天前

WMTD-TBJT 板凳

6 天前

致敬经典
回复 支持 反对

使用道具 举报

Liuxudong926 发表于 6 天前 Hao4K手机版

Liuxudong926 地板

6 天前

貌似记得这个是老越战三大经典“《前进高棉》《现代启示录》还有就是这个《野战排》。
回复 支持 2 反对 0

使用道具 举报

hhhz 发表于 6 天前

hhhz 5#

6 天前

经典越战片!够深度,感谢分享4K经典。
回复 支持 反对

使用道具 举报

GXD639 发表于 6 天前

GXD639 6#

6 天前

值得回忆一部电影
回复 支持 反对

使用道具 举报

loushunming 发表于 6 天前

loushunming 7#

6 天前

谢谢版主无私分享,经典好片不断
回复 支持 反对

使用道具 举报

aftok123 发表于 6 天前

aftok123 8#

6 天前

经典战争电影
回复 支持 反对

使用道具 举报

Hackchen007 发表于 6 天前

Hackchen007 9#

6 天前

gan xie fen xiang  !!!!
回复 支持 反对

使用道具 举报

BOQIJIN 发表于 6 天前 Hao4K手机版

BOQIJIN 10#

6 天前

越战最经典的电影。
回复 支持 反对

使用道具 举报

panbell 发表于 6 天前

panbell 11#

6 天前

经典越战片!
回复 支持 反对

使用道具 举报

atom1 发表于 6 天前 Hao4K手机版

atom1 12#

6 天前

经典电影,支持一下
回复 支持 反对

使用道具 举报

tlwlh 发表于 6 天前

tlwlh 13#

6 天前

谢谢楼主分享的好片
回复 支持 反对

使用道具 举报

wgrd 发表于 6 天前

wgrd 14#

6 天前



谢谢分享佳片!感谢楼主分享~
回复 支持 反对

使用道具 举报

fudongq210 发表于 6 天前

fudongq210 15#

6 天前

谢谢楼主分享
回复 支持 反对

使用道具 举报

116715293 发表于 6 天前

116715293 16#

6 天前


谢谢楼主分享
回复 支持 反对

使用道具 举报

nightkid619 发表于 6 天前

nightkid619 17#

6 天前

越战最经典的电影
回复 支持 反对

使用道具 举报

andywjhh 发表于 6 天前

andywjhh 18#

6 天前

好资源很给力
回复 支持 反对

使用道具 举报

   发表回复

您需要登录后才可以回帖 登录 | 立即注册

返回列表 本版积分规则

  • 在线客服

  • 返回顶部