微博 微信

Hao4K影音

电影频道
电影封面:
片  名: 彼得卢4k
电影分类: 剧情 历史 
国  家: 英国 
年  代: 2018年
分 辨 率: 4K(3840x2160)
电影格式: MKV|REMUX 
画质标准: HDR 10+ 
音质编码: Dolby Digital Plus Audio DTS-HD Master Audio 
电影声道: 5.1声道 
帧数/FPS: 24.000 帧
电影语言: 英文原版 
资源大小: 18.79 GB
导  演: 迈克·李
豆瓣评分: 6.9 分
中文字幕: /thread-57000-1-1.html
剧情简介: 该片故事发生在英国关键历史时期,彼时英国军队攻击一大批曼彻斯特要求议会改革的抗议者,导致15人死亡,几百人受伤,引起全英震惊。英国《卫报》也受此次事件影响而诞生。亚马逊负责本片北美发行。
彼得卢:血染曼彻斯特(港) / 彼得卢:人民之声(台) / 彼铁卢/彼得卢4k Peterloo.2018.2160p.AMZN.WEB-DL.x265.10bit.HDR10Plus.DTS-HD.MA.5.1电影信息
  1. Video
  2. ID : 1
  3. Format : HEVC
  4. Format/Info : High Efficiency Video Coding
  5. Format profile : Main 10@L5@Main
  6. HDR format : SMPTE ST 2094 App 4, Version 1, HDR10+ Profile B compatible
  7. Codec ID : V_MPEGH/ISO/HEVC
  8. Duration : 2 h 33 min
  9. Bit rate : 14.9 Mb/s
  10. Width : 3 840 pixels
  11. Height : 2 080 pixels
  12. Display aspect ratio : 1.85:1
  13. Frame rate mode : Constant
  14. Frame rate : 24.000 FPS
  15. Color space : YUV
  16. Chroma subsampling : 4:2:0
  17. Bit depth : 10 bits
  18. Bits/(Pixel*Frame) : 0.078
  19. Stream size : 16.0 GiB (85%)
  20. Language : English
  21. Default : Yes
  22. Forced : No
  23. Color range : Limited
  24. Color primaries : BT.2020
  25. Transfer characteristics : PQ
  26. Matrix coefficients : BT.2020 non-constant
  27. Mastering display color primaries : Display P3
  28. Mastering display luminance : min: 0.0050 cd/m2, max: 1000 cd/m2
  29. Maximum Content Light Level : 1185 cd/m2
  30. Maximum Frame-Average Light Level : 195 cd/m2

  31. Audio #1
  32. ID : 2
  33. Format : DTS XLL
  34. Format/Info : Digital Theater Systems
  35. Commercial name : DTS-HD Master Audio
  36. Codec ID : A_DTS
  37. Duration : 2 h 33 min
  38. Bit rate mode : Variable
  39. Bit rate : 1 926 kb/s
  40. Channel(s) : 6 channels
  41. Channel layout : C L R Ls Rs LFE
  42. Sampling rate : 48.0 kHz
  43. Frame rate : 93.750 FPS (512 SPF)
  44. Bit depth : 16 bits
  45. Compression mode : Lossless
  46. Delay relative to video : 2 ms
  47. Stream size : 2.07 GiB (11%)
  48. Title : DTS-HD MA 5.1
  49. Language : English
  50. Default : Yes
  51. Forced : No

  52. Audio #2
  53. ID : 3
  54. Format : E-AC-3
  55. Format/Info : Enhanced AC-3
  56. Commercial name : Dolby Digital Plus
  57. Codec ID : A_EAC3
  58. Duration : 2 h 33 min
  59. Bit rate mode : Constant
  60. Bit rate : 640 kb/s
  61. Channel(s) : 6 channels
  62. Channel layout : L R C LFE Ls Rs
  63. Sampling rate : 48.0 kHz
  64. Frame rate : 31.250 FPS (1536 SPF)
  65. Compression mode : Lossy
  66. Stream size : 705 MiB (4%)
  67. Title : DDP 5.1
  68. Language : English
  69. Service kind : Complete Main
  70. Default : No
  71. Forced : No

  72. Text
  73. ID : 4
  74. Format : UTF-8
  75. Codec ID : S_TEXT/UTF8
  76. Codec ID/Info : UTF-8 Plain Text
  77. Duration : 2 h 32 min
  78. Bit rate : 70 b/s
  79. Count of elements : 2553
  80. Stream size : 79.2 KiB (0%)
  81. Title : English
  82. Language : English
  83. Default : Yes
  84. Forced : No

  85. Menu
  86. 00:00:00.000 : Chapter 1
  87. 00:08:42.958 : Chapter 2
  88. 00:17:58.958 : Chapter 3
  89. 00:24:52.583 : Chapter 4
  90. 00:33:35.333 : Chapter 5
  91. 00:39:57.083 : Chapter 6
  92. 00:49:11.458 : Chapter 7
  93. 00:59:47.875 : Chapter 8
  94. 01:06:05.833 : Chapter 9
  95. 01:13:42.875 : Chapter 10
  96. 01:21:36.792 : Chapter 11
  97. 01:27:25.167 : Chapter 12
  98. 01:40:13.625 : Chapter 13
  99. 01:45:24.833 : Chapter 14
  100. 01:52:25.875 : Chapter 15
  101. 01:59:04.250 : Chapter 16
  102. 02:06:52.167 : Chapter 17
  103. 02:12:56.125 : Chapter 18
  104. 02:22:07.667 : Chapter 19
  105. 02:27:26.917 : Chapter 20
复制代码


彼得卢:血染曼彻斯特(港) / 彼得卢:人民之声(台) / 彼铁卢/彼得卢4k Peterloo.2018.2160p.AMZN.WEB-DL.x265.10bit.HDR10Plus.DTS-HD.MA.5.1电影下载

彼得卢4k Peterloo.2018.2160p.AMZN.WEB-DL.x265.10bit.HDR10Plus.DTS-HD.MA.5.1【18.79 GB】
[Hao4k]彼得卢4k Peterloo.2018.2160p.AMZN.WEB-DL.x265.10bit.HDR10Plus.DTS-HD.MA.5.torrent (94.61 KB, 售价: 2 K币)
回复

使用道具 举报

全部回复17

yale 发表于 2021-5-4 09:46:35

yale 沙发

2021-5-4 09:46:35

谢谢分享
回复 支持 反对

使用道具 举报

panbell 发表于 2021-5-4 10:27:51

panbell 板凳

2021-5-4 10:27:51

谢谢分享
回复 支持 反对

使用道具 举报

67646513 发表于 2021-5-4 11:19:28

67646513 地板

2021-5-4 11:19:28

谢谢分享
回复 支持 反对

使用道具 举报

yale 发表于 2021-5-4 22:48:27

yale 5#

2021-5-4 22:48:27

谢谢分享
回复 支持 反对

使用道具 举报

LOCKPAT 发表于 2021-5-5 10:15:25

LOCKPAT 6#

2021-5-5 10:15:25

感谢分享!
回复 支持 反对

使用道具 举报

liyun80000 发表于 2021-5-5 10:33:07

liyun80000 7#

2021-5-5 10:33:07

谢谢分享
回复 支持 反对

使用道具 举报

lub 发表于 2021-5-5 21:12:18

lub 8#

2021-5-5 21:12:18


感谢分享,辛苦了
回复 支持 反对

使用道具 举报

andywjhh 发表于 2021-5-6 13:25:21

andywjhh 9#

2021-5-6 13:25:21

好资源很给力
回复 支持 反对

使用道具 举报

dragon_walk 发表于 2021-5-6 13:56:27

dragon_walk 10#

2021-5-6 13:56:27

多谢分享。希望好看
回复 支持 反对

使用道具 举报

世爵39 发表于 2021-5-6 15:51:13

世爵39 11#

2021-5-6 15:51:13

谢謝分享
回复 支持 反对

使用道具 举报

frozenbrain 发表于 2021-5-6 21:05:27

frozenbrain 12#

2021-5-6 21:05:27

谢谢分享
回复 支持 反对

使用道具 举报

世爵39 发表于 2021-5-8 08:25:00

世爵39 13#

2021-5-8 08:25:00

我是很喜欢这种类型历史战争的电影。
回复 支持 反对

使用道具 举报

世爵39 发表于 2021-5-8 08:26:15

世爵39 14#

2021-5-8 08:26:15

希望能多点发布这类电影
回复 支持 反对

使用道具 举报

世爵39 发表于 2021-5-8 08:39:33

世爵39 15#

2021-5-8 08:39:33

这部片场面应该好大
回复 支持 反对

使用道具 举报

harlow123 发表于 2021-5-8 08:47:10

harlow123 16#

2021-5-8 08:47:10

谢谢分享
回复 支持 反对

使用道具 举报

WMTD-TBJT 发表于 2021-5-8 18:59:09

WMTD-TBJT 17#

2021-5-8 18:59:09

辛苦了。
回复 支持 反对

使用道具 举报

xjj3133xjj 发表于 3 天前

xjj3133xjj 18#

3 天前

很喜欢这种类型历史战争的电影
回复 支持 反对

使用道具 举报

   发表回复

您需要登录后才可以回帖 登录 | 立即注册

返回列表 本版积分规则

  • 在线客服

  • 返回顶部