微博 微信

Hao4K影音

电影频道
电影封面:
片  名: 爱在记忆消逝前4k
电影分类: 喜剧 爱情片 
国  家: 法国 意大利 
年  代: 2017年
分 辨 率: 4K(3840x2160)
电影格式: MKV|REMUX 
画质标准: HDR 
音质编码: Dolby Digital Audio DTS-HD Master Audio 
电影声道: 5.1声道 
帧数/FPS: 23.976 帧
电影语言: 英文原版 
资源大小: 58.12 GB
导  演: 保罗·维尔齐
豆瓣评分: 8.2 分
中文字幕: -
剧情简介:  该片改编自Michael Zadoorian的同名小说,讲述了一对患重病的老夫妻开着老旧的房车从马塞诸塞州出发前往海明威的故居,在旅途中回顾人生的故事。
  约翰是一位文学教师和作家,海明威的死忠,尽管阿兹海默症已经让他的记忆越来越差,甚至会忘记妻子和儿女的名字,却依旧可以随口说出海明威的所有作品,《老人和海》更是他的钟爱。因为妻子艾拉患重病需要住院, 约翰就只能进入养老院,携手走过一辈子的二人面临永远分开的未来。于是,他们有了一个疯狂的决定,决心驾驶名叫“leisure seeker 求闲者”的房车,从马塞诸塞州一路南行,回顾70年代曾和孩子们一起度假的旅程,目的地是西锁岛key west 的海明威故居。
人生无限露营车(台) / 爱在记忆消失前 / 浮生偷闲 / 求闲者 / Ella & John - The Leisure Seeker/爱在记忆消逝前4kThe.Leisure.Seeker.2017.2160p.BCORE.WEBDL.x265.10bit.HDR.DTS-HD.MA.5.1电影信息
  1. Video
  2. ID : 1
  3. Format : HEVC
  4. Format/Info : High Efficiency Video Coding
  5. Format profile : Main 10@L5.2@High
  6. HDR format : SMPTE ST 2086, HDR10 compatible
  7. Codec ID : V_MPEGH/ISO/HEVC
  8. Duration : 1 h 52 min
  9. Bit rate : 69.6 Mb/s
  10. Width : 3 840 pixels
  11. Height : 2 160 pixels
  12. Display aspect ratio : 16:9
  13. Frame rate mode : Constant
  14. Frame rate : 23.976 (24000/1001) FPS
  15. Color space : YUV
  16. Chroma subsampling : 4:2:0 (Type 2)
  17. Bit depth : 10 bits
  18. Bits/(Pixel*Frame) : 0.350
  19. Stream size : 54.5 GiB (94%)
  20. Language : English
  21. Default : Yes
  22. Forced : No
  23. Color range : Limited
  24. Color primaries : BT.2020
  25. Transfer characteristics : PQ
  26. Matrix coefficients : BT.2020 non-constant
  27. Mastering display color primaries : Display P3
  28. Mastering display luminance : min: 0.0050 cd/m2, max: 4000 cd/m2
  29. Maximum Content Light Level : 942 cd/m2
  30. Maximum Frame-Average Light Level : 114 cd/m2

  31. Audio #1
  32. ID : 2
  33. Format : DTS XLL
  34. Format/Info : Digital Theater Systems
  35. Commercial name : DTS-HD Master Audio
  36. Codec ID : A_DTS
  37. Duration : 1 h 52 min
  38. Bit rate mode : Variable
  39. Bit rate : 3 155 kb/s
  40. Channel(s) : 6 channels
  41. Channel layout : C L R Ls Rs LFE
  42. Sampling rate : 48.0 kHz
  43. Frame rate : 93.750 FPS (512 SPF)
  44. Bit depth : 24 bits
  45. Compression mode : Lossless
  46. Delay relative to video : 5 ms
  47. Stream size : 2.47 GiB (4%)
  48. Title : DTS-HD MA 5.1
  49. Language : English
  50. Default : Yes
  51. Forced : No

  52. Audio #2
  53. ID : 3
  54. Format : DTS
  55. Format/Info : Digital Theater Systems
  56. Codec ID : A_DTS
  57. Duration : 1 h 52 min
  58. Bit rate mode : Constant
  59. Bit rate : 768 kb/s
  60. Channel(s) : 6 channels
  61. Channel layout : C L R Ls Rs LFE
  62. Sampling rate : 48.0 kHz
  63. Frame rate : 93.750 FPS (512 SPF)
  64. Bit depth : 24 bits
  65. Compression mode : Lossy
  66. Stream size : 616 MiB (1%)
  67. Title : DTS 5.1
  68. Language : English
  69. Default : No
  70. Forced : No

  71. Audio #3
  72. ID : 4
  73. Format : AC-3
  74. Format/Info : Audio Coding 3
  75. Commercial name : Dolby Digital
  76. Codec ID : A_AC3
  77. Duration : 1 h 52 min
  78. Bit rate mode : Constant
  79. Bit rate : 640 kb/s
  80. Channel(s) : 6 channels
  81. Channel layout : L R C LFE Ls Rs
  82. Sampling rate : 48.0 kHz
  83. Frame rate : 31.250 FPS (1536 SPF)
  84. Compression mode : Lossy
  85. Stream size : 514 MiB (1%)
  86. Title : DD 5.1
  87. Language : English
  88. Service kind : Complete Main
  89. Default : No
  90. Forced : No

  91. Text
  92. ID : 5
  93. Format : UTF-8
  94. Codec ID : S_TEXT/UTF8
  95. Codec ID/Info : UTF-8 Plain Text
  96. Duration : 1 h 48 min
  97. Bit rate : 70 b/s
  98. Count of elements : 1860
  99. Stream size : 55.7 KiB (0%)
  100. Title : English-SRT
  101. Language : English
  102. Default : Yes
  103. Forced : No
复制代码


人生无限露营车(台) / 爱在记忆消失前 / 浮生偷闲 / 求闲者 / Ella & John - The Leisure Seeker/爱在记忆消逝前4k The.Leisure.Seeker.2017.2160p.BCORE.WEB-DL.x265.10bit.HDR.DTS-HD.MA.5.1电影下载


爱在记忆消逝前4k The.Leisure.Seeker.2017.2160p.BCORE.WEB-DL.x265.10bit.HDR.DTS-HD.MA.5.1【58.12 GB】
[Hao4k]爱在记忆消逝前4k The.Leisure.Seeker.2017.2160p.BCORE.WEB-DL.x265.10bit.HD.torrent (145.97 KB, 售价: 2 K币)
回复

使用道具 举报

全部回复18

yale 发表于 5 天前

yale 沙发

5 天前

谢谢分享
回复 支持 反对

使用道具 举报

yangly 发表于 5 天前

yangly 板凳

5 天前

谢谢分享
回复 支持 反对

使用道具 举报

dk30129 发表于 5 天前

dk30129 地板

5 天前

谢谢分享,楼主辛苦了!
回复 支持 反对

使用道具 举报

ttdwht 发表于 5 天前

ttdwht 5#

5 天前

谢谢分享,楼主辛苦了!
回复 支持 反对

使用道具 举报

SoulLost 发表于 5 天前

SoulLost 6#

5 天前

感谢分享
回复 支持 反对

使用道具 举报

大头八神聪 发表于 5 天前

大头八神聪 7#

5 天前

感谢分享
回复 支持 反对

使用道具 举报

loushunming 发表于 5 天前

loushunming 8#

5 天前

谢谢楼主无私分享
回复 支持 反对

使用道具 举报

yale 发表于 5 天前

yale 9#

5 天前

谢谢分享
回复 支持 反对

使用道具 举报

LOCKPAT 发表于 4 天前

LOCKPAT 10#

4 天前

感谢分享!
回复 支持 反对

使用道具 举报

z-fh 发表于 4 天前

z-fh 11#

4 天前

爱情圭臬三部曲要变成四部曲了?
回复 支持 反对

使用道具 举报

MarvinTeng 发表于 3 天前

MarvinTeng 12#

3 天前

多谢分享
回复 支持 反对

使用道具 举报

vincent4587 发表于 3 天前

vincent4587 13#

3 天前

BCORE是什么意思,为什么这么大的文件?
回复 支持 反对

使用道具 举报

andywjhh 发表于 3 天前

andywjhh 14#

3 天前

好资源很给力
回复 支持 反对

使用道具 举报

dragon_walk 发表于 3 天前

dragon_walk 15#

3 天前

好片下载收藏
回复 支持 反对

使用道具 举报

梁忠毅. 发表于 前天 11:22 Hao4K手机版

梁忠毅. 16#

前天 11:22

感谢作者
回复 支持 反对

使用道具 举报

vaguely 发表于 前天 15:32

vaguely 17#

前天 15:32

不可多得的温情影片,应该看,谢谢了
回复 支持 反对

使用道具 举报

syzwf007 发表于 昨天 14:41

syzwf007 18#

昨天 14:41

谢谢分享
回复 支持 反对

使用道具 举报

   发表回复

您需要登录后才可以回帖 登录 | 立即注册

返回列表 本版积分规则

  • 在线客服

  • 返回顶部