微博 微信

Hao4K影音

[英剧] 水上钟楼4k Curon.S01.美剧下载

3 天前 16903 1 |只看大图 回帖奖励 |倒序浏览 |阅读模式

大红色 楼主

2021-5-4 12:17:32

电视剧频道
电视剧封面:
电视剧名: 水上钟楼4k
年  代: 2020  
国  家: 意大利
类  别: 惊悚 悬疑 奇幻 
语  言: 其他
字  幕: 英文原版
上映日期: 020-06-10
文件格式: mkv    
视频效果: 4K(3840x2160)    
资源大小: 27.56 GB
片  长: 6.0 分钟
导  演: 法比奥·莫洛 / 莱达·帕蒂图奇
剧情简介:  一位母亲和她十几岁的孩子们回到了她在意大利北部的神秘村庄,却发现了她过去的真相。
水上钟楼4k Curon.S01.ITALIAN.2160p.NF.WEBRip.x265.10bit.HDR.DDP5.1意大利电视剧信息
  1. Video
  2. ID : 1
  3. Format : HEVC
  4. Format/Info : High Efficiency Video Coding
  5. Format profile : Main 10@L5.1@High
  6. HDR format : SMPTE ST 2086, HDR10 compatible
  7. Codec ID : V_MPEGH/ISO/HEVC
  8. Duration : 48 min 59 s
  9. Bit rate : 13.3 Mb/s
  10. Width : 3 840 pixels
  11. Height : 1 920 pixels
  12. Display aspect ratio : 2.000
  13. Frame rate mode : Constant
  14. Frame rate : 24.000 FPS
  15. Color space : YUV
  16. Chroma subsampling : 4:2:0 (Type 2)
  17. Bit depth : 10 bits
  18. Bits/(Pixel*Frame) : 0.075
  19. Stream size : 4.54 GiB (95%)
  20. Default : Yes
  21. Forced : No
  22. Color range : Limited
  23. Color primaries : BT.2020
  24. Transfer characteristics : PQ
  25. Matrix coefficients : BT.2020 non-constant
  26. Mastering display color primaries : Display P3
  27. Mastering display luminance : min: 0.0001 cd/m2, max: 1000 cd/m2
  28. Maximum Content Light Level : 7538 cd/m2
  29. Maximum Frame-Average Light Level : 150 cd/m2

  30. Audio
  31. ID : 2
  32. Format : E-AC-3
  33. Format/Info : Enhanced AC-3
  34. Commercial name : Dolby Digital Plus
  35. Codec ID : A_EAC3
  36. Duration : 50 min 1 s
  37. Bit rate mode : Constant
  38. Bit rate : 640 kb/s
  39. Channel(s) : 6 channels
  40. Channel layout : L R C LFE Ls Rs
  41. Sampling rate : 48.0 kHz
  42. Frame rate : 31.250 FPS (1536 SPF)
  43. Compression mode : Lossy
  44. Delay relative to video : 4 ms
  45. Stream size : 229 MiB (5%)
  46. Title : Italian
  47. Language : Italian
  48. Service kind : Complete Main
  49. Default : Yes
  50. Forced : No

  51. Text #1
  52. ID : 3
  53. Format : UTF-8
  54. Codec ID : S_TEXT/UTF8
  55. Codec ID/Info : UTF-8 Plain Text
  56. Duration : 45 min 28 s
  57. Bit rate : 29 b/s
  58. Count of elements : 411
  59. Stream size : 9.98 KiB (0%)
  60. Language : English
  61. Default : Yes
  62. Forced : No

  63. Text #2
  64. ID : 4
  65. Format : UTF-8
  66. Codec ID : S_TEXT/UTF8
  67. Codec ID/Info : UTF-8 Plain Text
  68. Duration : 49 min 5 s
  69. Bit rate : 39 b/s
  70. Count of elements : 546
  71. Stream size : 14.3 KiB (0%)
  72. Title : SDH
  73. Language : English
  74. Default : No
  75. Forced : Yes

  76. Text #3
  77. ID : 5
  78. Format : UTF-8
  79. Codec ID : S_TEXT/UTF8
  80. Codec ID/Info : UTF-8 Plain Text
  81. Duration : 45 min 37 s
  82. Bit rate : 38 b/s
  83. Count of elements : 534
  84. Stream size : 12.9 KiB (0%)
  85. Title : SDH
  86. Language : Italian
  87. Default : No
  88. Forced : No

  89. Text #4
  90. ID : 6
  91. Format : UTF-8
  92. Codec ID : S_TEXT/UTF8
  93. Codec ID/Info : UTF-8 Plain Text
  94. Duration : 48 min 59 s
  95. Bit rate : 27 b/s
  96. Count of elements : 431
  97. Stream size : 10.0 KiB (0%)
  98. Title : Latin America
  99. Language : Spanish
  100. Default : No
  101. Forced : No

  102. Text #5
  103. ID : 7
  104. Format : UTF-8
  105. Codec ID : S_TEXT/UTF8
  106. Codec ID/Info : UTF-8 Plain Text
  107. Duration : 48 min 59 s
  108. Bit rate : 28 b/s
  109. Count of elements : 430
  110. Stream size : 10.1 KiB (0%)
  111. Language : Spanish
  112. Default : No
  113. Forced : No

  114. Text #6
  115. ID : 8
  116. Format : UTF-8
  117. Codec ID : S_TEXT/UTF8
  118. Codec ID/Info : UTF-8 Plain Text
  119. Duration : 48 min 59 s
  120. Bit rate : 26 b/s
  121. Count of elements : 428
  122. Stream size : 9.60 KiB (0%)
  123. Title : Brazilian
  124. Language : Portuguese
  125. Default : No
  126. Forced : No

  127. Text #7
  128. ID : 9
  129. Format : UTF-8
  130. Codec ID : S_TEXT/UTF8
  131. Codec ID/Info : UTF-8 Plain Text
  132. Duration : 48 min 59 s
  133. Bit rate : 26 b/s
  134. Count of elements : 427
  135. Stream size : 9.38 KiB (0%)
  136. Language : German
  137. Default : No
  138. Forced : No

  139. Text #8
  140. ID : 10
  141. Format : UTF-8
  142. Codec ID : S_TEXT/UTF8
  143. Codec ID/Info : UTF-8 Plain Text
  144. Duration : 48 min 59 s
  145. Bit rate : 26 b/s
  146. Count of elements : 429
  147. Stream size : 9.60 KiB (0%)
  148. Language : French
  149. Default : No
  150. Forced : No

  151. Text #9
  152. ID : 11
  153. Format : UTF-8
  154. Codec ID : S_TEXT/UTF8
  155. Codec ID/Info : UTF-8 Plain Text
  156. Duration : 48 min 59 s
  157. Bit rate : 32 b/s
  158. Count of elements : 431
  159. Stream size : 11.7 KiB (0%)
  160. Title : Simplified
  161. Language : Chinese
  162. Default : No
  163. Forced : No

  164. Text #10
  165. ID : 12
  166. Format : UTF-8
  167. Codec ID : S_TEXT/UTF8
  168. Codec ID/Info : UTF-8 Plain Text
  169. Duration : 48 min 59 s
  170. Bit rate : 30 b/s
  171. Count of elements : 430
  172. Stream size : 10.8 KiB (0%)
  173. Title : Traditional
  174. Language : Chinese
  175. Default : No
  176. Forced : No

  177. Text #11
  178. ID : 13
  179. Format : UTF-8
  180. Codec ID : S_TEXT/UTF8
  181. Codec ID/Info : UTF-8 Plain Text
  182. Duration : 48 min 59 s
  183. Bit rate : 54 b/s
  184. Count of elements : 431
  185. Stream size : 19.5 KiB (0%)
  186. Language : Arabic
  187. Default : No
  188. Forced : No

  189. Text #12
  190. ID : 14
  191. Format : UTF-8
  192. Codec ID : S_TEXT/UTF8
  193. Codec ID/Info : UTF-8 Plain Text
  194. Duration : 48 min 59 s
  195. Bit rate : 25 b/s
  196. Count of elements : 431
  197. Stream size : 9.01 KiB (0%)
  198. Language : Czech
  199. Default : No
  200. Forced : No

  201. Text #13
  202. ID : 15
  203. Format : UTF-8
  204. Codec ID : S_TEXT/UTF8
  205. Codec ID/Info : UTF-8 Plain Text
  206. Duration : 48 min 59 s
  207. Bit rate : 25 b/s
  208. Count of elements : 427
  209. Stream size : 9.28 KiB (0%)
  210. Language : Danish
  211. Default : No
  212. Forced : No

  213. Text #14
  214. ID : 16
  215. Format : UTF-8
  216. Codec ID : S_TEXT/UTF8
  217. Codec ID/Info : UTF-8 Plain Text
  218. Duration : 48 min 59 s
  219. Bit rate : 45 b/s
  220. Count of elements : 431
  221. Stream size : 16.2 KiB (0%)
  222. Language : Greek
  223. Default : No
  224. Forced : No
复制代码

水上钟楼4k Curon.S01.ITALIAN.2160p.NF.WEBRip.x265.10bit.HDR.DDP5.1意大利电视剧下载

水上钟楼4k Curon.S01.ITALIAN.2160p.NF.WEBRip.x265.10bit.HDR.DDP5.1【27.56GB】
[Hao4k]水上钟楼4k Curon.S01.ITALIAN.2160p.NF.WEBRip.x265.10bit.HDR.DDP5.1-182K.torrent (70.04 KB)
回复

使用道具 举报

全部回复1

wiyyh 发表于 3 天前

wiyyh 沙发

3 天前

谢谢分享
回复 支持 反对

使用道具 举报

   发表回复

您需要登录后才可以回帖 登录 | 立即注册

返回列表 本版积分规则

:
白银玩家
:
未填写

主题

帖子

积分1091

图文推荐

  • 不用madVR也能正确显示HDR——新版PotPlaye

    用PC看视频的朋友多多少少都用过PotPlayer这个神

  • 教你如何制做自已喜欢的字幕 (上)

    一部好片源自然需要自已喜欢的字幕,正如才子与佳

  • 隐藏式音箱5.1家庭影院案例

    为什么论坛没有人像我一样做这种隐形音箱方案呢?

  • 昨晚重温了《生死时速》4K版,这部经典大片

    昨晚重温了《生死时速》4K版,这部经典大片。记得

  • 买到这样爱普生tw7000机器是不是中奖了

    新人首贴。请求关爱。 我这个星期买了心仪已久的

  • 电锯惊魂9:漩涡将发布4K UHD蓝光影碟

    【美影 4K】电锯惊魂9:漩涡上映后将发布4K UHD

  • 在线客服

  • 返回顶部