微博 微信

Hao4K影音

[美剧] 不列颠尼亚 第二季4k Britannia.S02.2160p.美剧下载

2021-5-5 19:01:43 9393 1 |只看大图 回帖奖励 |倒序浏览 |阅读模式

大红色 楼主

2021-5-4 12:28:37

电视剧频道
电视剧封面:
电视剧名: 不列颠尼亚 第二季4k
年  代: 2019  
国  家: 美国
类  别: 动作 剧情 奇幻 
语  言: 英语
字  幕: 英文原版
上映日期: 2019-11-07
文件格式: mkv    
视频效果: 4K(3840x2160)    
资源大小: 74.82 GB
片  长: 60 分钟
导  演: 卢克·沃森
剧情简介: 公元43年,罗马人大举进攻日后被称作大英帝国的不列颠尼亚,女英雄布迪卡女王(Boudicca)在民族危难之际挺身而出,与罗马执政官卡西乌斯(Cassius)建立联盟,鼓动卡西乌斯反抗罗马皇帝克劳狄一世。在该剧中,罗马帝国的军队发誓要彻底摧毁不列颠尼亚的「凯尔特之心」——由英勇善战的女战士和实力强大的德鲁伊控制的一块神秘土地。传说中,这些德鲁伊能够聚集冥界的强大力量,战胜任何敢于来犯的敌人。
  Kelly Reilly扮演凯拉(Kerra),Zoë meijubar.net Wanamaker扮演安特迪雅(Antedia),她们是一对不共戴天的仇敌。在外敌入侵的情况下,她们必须抛弃个人恩怨与成见,共同抵御由卓越的罗马将军奥卢斯-普劳提乌斯(Aulus Plautius,David Morrissey扮演)率领的罗马军团。该剧在捷克首都布拉格和威尔士取景拍摄,2017年播出。
不列颠尼亚 第二季4k Britannia.S02.2160p.WEBRip.DD5.1.x264美剧信息
  1. Video
  2. ID : 1
  3. Format : AVC
  4. Format/Info : Advanced Video Codec
  5. Format profile : High@L5.1
  6. Format settings : CABAC / 5 Ref Frames
  7. Format settings, CABAC : Yes
  8. Format settings, Reference frames : 5 frames
  9. Codec ID : V_MPEG4/ISO/AVC
  10. Duration : 41 min 29 s
  11. Bit rate : 28.4 Mb/s
  12. Width : 3 840 pixels
  13. Height : 2 160 pixels
  14. Display aspect ratio : 16:9
  15. Frame rate mode : Constant
  16. Frame rate : 25.000 FPS
  17. Color space : YUV
  18. Chroma subsampling : 4:2:0
  19. Bit depth : 8 bits
  20. Scan type : Progressive
  21. Bits/(Pixel*Frame) : 0.137
  22. Stream size : 8.22 GiB (99%)
  23. Default : Yes
  24. Forced : No

  25. Audio
  26. ID : 2
  27. Format : AC-3
  28. Format/Info : Audio Coding 3
  29. Commercial name : Dolby Digital
  30. Codec ID : A_AC3
  31. Duration : 41 min 30 s
  32. Bit rate mode : Constant
  33. Bit rate : 384 kb/s
  34. Channel(s) : 6 channels
  35. Channel layout : L R C LFE Ls Rs
  36. Sampling rate : 48.0 kHz
  37. Frame rate : 31.250 FPS (1536 SPF)
  38. Compression mode : Lossy
  39. Delay relative to video : 1 ms
  40. Stream size : 114 MiB (1%)
  41. Language : English
  42. Service kind : Complete Main
  43. Default : Yes
  44. Forced : No
复制代码


不列颠尼亚 第二季4k Britannia.S02.2160p.WEBRip.DD5.1.x264美剧下载

不列颠尼亚 第二季4k Britannia.S02.2160p.WEBRip.DD5.1.x264【74.82 GB】
[Hao4k]不列颠尼亚 第二季4k Britannia.S02.2160p.WEBRip.DD5.1.x264-182K.torrent (188.38 KB)
回复

使用道具 举报

全部回复1

jin136 发表于 2021-5-5 19:01:43

jin136 沙发

2021-5-5 19:01:43

身临其境的脚步声大修
回复 支持 反对

使用道具 举报

   发表回复

您需要登录后才可以回帖 登录 | 立即注册

返回列表 本版积分规则

:
白银玩家
:
未填写

主题

帖子

积分1075

图文推荐

  • 不用madVR也能正确显示HDR——新版PotPlaye

    用PC看视频的朋友多多少少都用过PotPlayer这个神

  • 教你如何制做自已喜欢的字幕 (上)

    一部好片源自然需要自已喜欢的字幕,正如才子与佳

  • 隐藏式音箱5.1家庭影院案例

    为什么论坛没有人像我一样做这种隐形音箱方案呢?

  • 昨晚重温了《生死时速》4K版,这部经典大片

    昨晚重温了《生死时速》4K版,这部经典大片。记得

  • 买到这样爱普生tw7000机器是不是中奖了

    新人首贴。请求关爱。 我这个星期买了心仪已久的

  • 电锯惊魂9:漩涡将发布4K UHD蓝光影碟

    【美影 4K】电锯惊魂9:漩涡上映后将发布4K UHD

  • 在线客服

  • 返回顶部