微博 微信

Hao4K影音

电影频道
电影封面:
片  名: 固定电话4k
电影分类: 喜剧 
国  家: 美国 
年  代: 2017年
分 辨 率: 4K(3840x2160)
电影格式: MKV|REMUX 
画质标准: HDR 10+ 
音质编码: Dolby Digital Plus Audio 
电影声道: 其他 
帧数/FPS: 23.976 帧
电影语言: 英文原版 
资源大小: 10.45 GB
导  演: 吉莉安·罗伯斯比尔
豆瓣评分: 6.4 分
中文字幕: -
剧情简介: 珍妮·斯蕾特将再与美国女导演吉莉安·罗伯斯比尔合作,拍摄喜剧片《固定电话》(Landline)。这部电影由珍妮·斯蕾特和艾比·奎因主演,两人在影片中饰演姐妹,故事讲述她们发现父亲欺骗母亲后,两人之间的矛盾冲突。
地雷/固定电话4k Landline.2017.HDR.2160p.WEB.h265电影信息
  1. Video
  2. ID : 1
  3. Format : HEVC
  4. Format/Info : High Efficiency Video Coding
  5. Format profile : Main 10@L5@Main
  6. HDR format : SMPTE ST 2094 App 4, Version 1, HDR10+ Profile B compatible
  7. Codec ID : V_MPEGH/ISO/HEVC
  8. Duration : 1 h 37 min
  9. Bit rate : 14.7 Mb/s
  10. Width : 3 840 pixels
  11. Height : 1 600 pixels
  12. Display aspect ratio : 2.40:1
  13. Frame rate mode : Constant
  14. Frame rate : 23.976 (24000/1001) FPS
  15. Color space : YUV
  16. Chroma subsampling : 4:2:0
  17. Bit depth : 10 bits
  18. Bits/(Pixel*Frame) : 0.100
  19. Stream size : 10.0 GiB (96%)
  20. Language : English
  21. Default : Yes
  22. Forced : No
  23. Color range : Limited
  24. Color primaries : BT.2020
  25. Transfer characteristics : PQ
  26. Matrix coefficients : BT.2020 non-constant
  27. Mastering display color primaries : Display P3
  28. Mastering display luminance : min: 0.0001 cd/m2, max: 1000 cd/m2
  29. Maximum Content Light Level : 1609 cd/m2
  30. Maximum Frame-Average Light Level : 211 cd/m2

  31. Audio
  32. ID : 2
  33. Format : E-AC-3
  34. Format/Info : Enhanced AC-3
  35. Commercial name : Dolby Digital Plus
  36. Codec ID : A_EAC3
  37. Duration : 1 h 37 min
  38. Bit rate mode : Constant
  39. Bit rate : 640 kb/s
  40. Channel(s) : 6 channels
  41. Channel layout : L R C LFE Ls Rs
  42. Sampling rate : 48.0 kHz
  43. Frame rate : 31.250 FPS (1536 SPF)
  44. Compression mode : Lossy
  45. Stream size : 445 MiB (4%)
  46. Language : English
  47. Service kind : Complete Main
  48. Default : Yes
  49. Forced : No

  50. Text
  51. ID : 3
  52. Format : UTF-8
  53. Codec ID : S_TEXT/UTF8
  54. Codec ID/Info : UTF-8 Plain Text
  55. Duration : 1 h 34 min
  56. Bit rate : 74 b/s
  57. Count of elements : 1984
  58. Stream size : 51.6 KiB (0%)
  59. Title : English
  60. Language : English
  61. Default : No
  62. Forced : No
复制代码


地雷/固定电话4k Landline.2017.HDR.2160p.WEB.h265电影下载

固定电话4k Landline.2017.HDR.2160p.WEB.h265【4K HDR 10.45GB】
[Hao4k]固定电话4k Landline.2017.HDR.2160p.WEB.h265-RUMOUR.torrent (52.95 KB)
回复

使用道具 举报

全部回复9

aftok123 发表于 2021-5-4 21:14:11

aftok123 沙发

2021-5-4 21:14:11

没人座沙发吗
回复 支持 反对

使用道具 举报

loushunming 发表于 2021-5-4 22:13:51

loushunming 板凳

2021-5-4 22:13:51

谢谢楼主无私分享
回复 支持 反对

使用道具 举报

yale 发表于 2021-5-4 22:47:38

yale 地板

2021-5-4 22:47:38

谢谢分享
回复 支持 反对

使用道具 举报

LOCKPAT 发表于 2021-5-5 10:14:52

LOCKPAT 5#

2021-5-5 10:14:52

感谢分享!
回复 支持 反对

使用道具 举报

andywjhh 发表于 2021-5-6 14:04:00

andywjhh 6#

2021-5-6 14:04:00

好资源很给力
回复 支持 反对

使用道具 举报

dragon_walk 发表于 2021-5-6 14:38:09

dragon_walk 7#

2021-5-6 14:38:09

免费真香
回复 支持 反对

使用道具 举报

ilikehao 发表于 2021-5-7 12:59:35

ilikehao 8#

2021-5-7 12:59:35

感谢分享好资源。
回复 支持 反对

使用道具 举报

18520199909 发表于 2021-5-9 18:41:49

18520199909 9#

2021-5-9 18:41:49

还没有字幕
回复 支持 反对

使用道具 举报

andywjhh 发表于 昨天 15:01

andywjhh 10#

昨天 15:01

好资源很给力
回复 支持 反对

使用道具 举报

   发表回复

您需要登录后才可以回帖 登录 | 立即注册

返回列表 本版积分规则

  • 在线客服

  • 返回顶部