微博 微信

Hao4K影音

电影频道
电影封面:
片  名: 纯真年代4k
电影分类: 剧情 爱情片 
国  家: 美国 
年  代: 90年代
分 辨 率: 4K(3840x2160)
电影格式: MKV|REMUX 
画质标准: SDR 
音质编码: DTS-HD Master Audio 
电影声道: 5.1声道 
帧数/FPS: 23.976 帧
电影语言: 英文原版 
资源大小: 24.66 GB
导  演: 马丁·斯科塞斯
豆瓣评分: 8.2 分
中文字幕: -
剧情简介: 19世纪的纽约,上流阶层的人士有着一套自己的判断标准和生活规则,要求体面、得体。年轻律师纽伦(Daniel Day-Lewis 饰)也不例外,他将与门当户对的千金小姐梅(Winona Ryder 饰)订婚。然而在订婚前夕,他与梅的表姐、刚刚离婚自欧洲回到纽约的艾伦(米歇 尔·菲佛 Michelle Pfeiffer 饰)重逢,二人 一见如故,情愫顿生。然而艾伦的大胆行为和追求自我的作风是不被那个上流社会所接纳和允许的,在大家的眼中她是一个讨人厌的怪物。纽伦却意识到这种性格的可贵,并且被这种性格所折服,如果不能和所爱的人在一起,如果一生不是为自己而是为礼数为体面而活,人生将是多么的空虚和苍白。纽伦想和艾伦私奔,然而梅却怀孕了。虽然想追求属于自己的幸福,但是却同样不想伤害他人的这对爱人,最终选择了放手。纽伦和梅结婚了,脾气和顺的梅一直处于无辜的中心。然而直到梅的死去,他们才看见了事物的另一面……
心外幽情(港) / 纯情年代/纯真年代4k The.Age.of.Innocence.1993.2160p.WEB-DL.x265.10bit.SDR.DTS-HD.MA.5.1电影信息
  1. Video
  2. ID : 1
  3. Format : HEVC
  4. Format/Info : High Efficiency Video Coding
  5. Format profile : Main 10@L5.2@High
  6. Codec ID : V_MPEGH/ISO/HEVC
  7. Duration : 2 h 18 min
  8. Bit rate : 21.0 Mb/s
  9. Width : 3 840 pixels
  10. Height : 2 160 pixels
  11. Display aspect ratio : 16:9
  12. Frame rate mode : Constant
  13. Frame rate : 23.976 (24000/1001) FPS
  14. Color space : YUV
  15. Chroma subsampling : 4:2:0
  16. Bit depth : 10 bits
  17. Bits/(Pixel*Frame) : 0.105
  18. Stream size : 20.3 GiB (82%)
  19. Language : English
  20. Default : Yes
  21. Forced : No
  22. Color range : Full
  23. Color primaries : BT.709
  24. Transfer characteristics : BT.709
  25. Matrix coefficients : BT.709

  26. Audio #1
  27. ID : 2
  28. ID in the original source medium : 4352 (0x1100)
  29. Format : DTS XLL
  30. Format/Info : Digital Theater Systems
  31. Commercial name : DTS-HD Master Audio
  32. Codec ID : A_DTS
  33. Duration : 2 h 18 min
  34. Bit rate mode : Variable
  35. Bit rate : 3 852 kb/s
  36. Channel(s) : 6 channels
  37. Channel layout : C L R Ls Rs LFE
  38. Sampling rate : 48.0 kHz
  39. Frame rate : 93.750 FPS (512 SPF)
  40. Bit depth : 24 bits
  41. Compression mode : Lossless
  42. Delay relative to video : 2 ms
  43. Stream size : 3.72 GiB (15%)
  44. Title : DTS-HD MA 5.1
  45. Language : English
  46. Default : Yes
  47. Forced : No
  48. Original source medium : Blu-ray

  49. Audio #2
  50. ID : 3
  51. Format : AC-3
  52. Format/Info : Audio Coding 3
  53. Commercial name : Dolby Digital
  54. Codec ID : A_AC3
  55. Duration : 2 h 18 min
  56. Bit rate mode : Constant
  57. Bit rate : 640 kb/s
  58. Channel(s) : 6 channels
  59. Channel layout : L R C LFE Ls Rs
  60. Sampling rate : 48.0 kHz
  61. Frame rate : 31.250 FPS (1536 SPF)
  62. Compression mode : Lossy
  63. Stream size : 634 MiB (3%)
  64. Title : DD 5.1
  65. Language : English
  66. Service kind : Complete Main
  67. Default : No
  68. Forced : No

  69. Text
  70. ID : 4
  71. Format : UTF-8
  72. Codec ID : S_TEXT/UTF8
  73. Codec ID/Info : UTF-8 Plain Text
  74. Duration : 2 h 8 min
  75. Bit rate : 87 b/s
  76. Count of elements : 1788
  77. Stream size : 82.1 KiB (0%)
  78. Title : English-SRT
  79. Language : English
  80. Default : Yes
  81. Forced : No
复制代码

心外幽情(港) / 纯情年代/纯真年代4k The.Age.of.Innocence.1993.2160p.WEB-DL.x265.10bit.SDR.DTS-HD.MA.5.1电影下载

纯真年代4k The.Age.of.Innocence.1993.2160p.WEB-DL.x265.10bit.SDR.DTS-HD.MA.5.1【24.66 GB】
[Hao4k]纯真年代4k The.Age.of.Innocence.1993.2160p.WEB-DL.x265.10bit.SDR.DTS-HD.M.torrent (62.32 KB)
回复

使用道具 举报

全部回复26

稍息 发表于 2021-5-4 20:47:56

稍息 沙发

2021-5-4 20:47:56

感谢楼主分享~!
回复 支持 反对

使用道具 举报

aftok123 发表于 2021-5-4 21:14:59

aftok123 板凳

2021-5-4 21:14:59

这回座回板凳
回复 支持 反对

使用道具 举报

loushunming 发表于 2021-5-4 22:13:27

loushunming 地板

2021-5-4 22:13:27

谢谢楼主无私分享
回复 支持 反对

使用道具 举报

yale 发表于 2021-5-4 22:47:20

yale 5#

2021-5-4 22:47:20

谢谢分享
回复 支持 反对

使用道具 举报

ywf6168 发表于 2021-5-5 08:08:09

ywf6168 6#

2021-5-5 08:08:09

谢谢楼主无私分享
回复 支持 反对

使用道具 举报

vincent4587 发表于 2021-5-5 08:09:41

vincent4587 7#

2021-5-5 08:09:41

在老马丁的作品里面实属异类,非常唯美
回复 支持 反对

使用道具 举报

skywrm 发表于 2021-5-5 08:58:19

skywrm 8#

2021-5-5 08:58:19


在老马丁的作品里面实属异类,非常唯美
回复 支持 反对

使用道具 举报

LOCKPAT 发表于 2021-5-5 10:14:34

LOCKPAT 9#

2021-5-5 10:14:34

感谢分享!
回复 支持 反对

使用道具 举报

添爸 发表于 2021-5-5 10:44:05

添爸 10#

2021-5-5 10:44:05

感谢分享!
回复 支持 反对

使用道具 举报

sm600192 发表于 2021-5-5 11:25:17

sm600192 11#

2021-5-5 11:25:17


感谢分享!
回复 支持 反对

使用道具 举报

panbell 发表于 2021-5-5 13:30:41

panbell 12#

2021-5-5 13:30:41

谢谢楼主分享
回复 支持 反对

使用道具 举报

r31325 发表于 2021-5-5 16:28:27

r31325 13#

2021-5-5 16:28:27

很有名的片子,喜欢
回复 支持 反对

使用道具 举报

xjj3133xjj 发表于 2021-5-6 08:08:54

xjj3133xjj 14#

2021-5-6 08:08:54



感谢分享!
回复 支持 反对

使用道具 举报

batimeg 发表于 2021-5-6 12:21:28

batimeg 15#

2021-5-6 12:21:28

谢谢分享,无中字比较遗憾
回复 支持 反对

使用道具 举报

likai1998 发表于 2021-5-6 13:02:26

likai1998 16#

2021-5-6 13:02:26

来看看吗
回复 支持 反对

使用道具 举报

andywjhh 发表于 2021-5-6 14:00:14

andywjhh 17#

2021-5-6 14:00:14

好资源很给力
回复 支持 反对

使用道具 举报

dragon_walk 发表于 2021-5-6 14:38:49

dragon_walk 18#

2021-5-6 14:38:49

多谢分享。免费啊
回复 支持 反对

使用道具 举报

   发表回复

您需要登录后才可以回帖 登录 | 立即注册

返回列表 本版积分规则

  • 在线客服

  • 返回顶部