微博 微信

Hao4K影音

电影频道
电影封面:
片  名: 一条狗的回家路4K
电影分类: 冒险 剧情 
国  家: 美国 
年  代: 2019年
分 辨 率: 4K(3840x2160)
电影格式: MKV|REMUX 
画质标准: HDR 
音质编码: DTS-HD Master Audio 
电影声道: 5.1声道 
帧数/FPS: 23.976 帧
电影语言: 英文原版 
资源大小: 51.17 GB
导  演: 查尔斯·马丁·史密斯
豆瓣评分: 6.9 分
中文字幕: /thread-57043-1-1.html
剧情简介: 某日,善良的男孩卢卡斯(乔纳·豪尔-金 Jonah Hauer-King 饰)在一幢废弃的大楼里遇见了一只孤零零的小狗,虽然卢卡斯的母亲禁止他养宠物,但是不忍心看到小狗无人照料的卢卡斯还是将小狗带回了家并取名为贝拉,就这样,贝拉成为了卢卡斯家中新的一员。
  某日,卢卡斯的母亲带着贝拉前往退伍军人医院看病,哪知道贝拉不仅没有给她惹麻烦,反而还给医院里原本郁郁寡欢的病人们带来了快乐,很快,贝拉就成为了医院中的人气明星。一场意外让卢卡斯不得不将贝拉寄养在朋友家中,并不理解主人的用意的贝拉决定离家出走,依靠自己的勇气和智慧和主人重聚。
贝拉400哩的约定(港) / 为了与你相聚(台)/一条狗的回家路4KA.Dogs.Way.Home.2019.2160p.BCORE.WEB-DL.x265.10bit.HDR.DTS-HD.MA.5.1-4k电影信息

  1. Video
  2. ID : 1
  3. Format : HEVC
  4. Format/Info : High Efficiency Video Coding
  5. Format profile : Main 10@L5.2@High
  6. HDR format : SMPTE ST 2086, HDR10 compatible
  7. Codec ID : V_MPEGH/ISO/HEVC
  8. Duration : 1 h 35 min
  9. Bit rate : 72.8 Mb/s
  10. Width : 3 840 pixels
  11. Height : 2 160 pixels
  12. Display aspect ratio : 16:9
  13. Frame rate mode : Constant
  14. Frame rate : 23.976 (24000/1001) FPS
  15. Color space : YUV
  16. Chroma subsampling : 4:2:0 (Type 2)
  17. Bit depth : 10 bits
  18. Bits/(Pixel*Frame) : 0.366
  19. Stream size : 48.8 GiB (95%)
  20. Language : English
  21. Default : Yes
  22. Forced : No
  23. Color range : Full
  24. Color primaries : BT.2020
  25. Transfer characteristics : PQ
  26. Matrix coefficients : BT.2020 non-constant
  27. Mastering display color primaries : Display P3
  28. Mastering display luminance : min: 0.0050 cd/m2, max: 4000 cd/m2
  29. Maximum Content Light Level : 4045 cd/m2
  30. Maximum Frame-Average Light Level : 383 cd/m2

  31. Audio #1
  32. ID : 2
  33. Format : DTS XLL
  34. Format/Info : Digital Theater Systems
  35. Commercial name : DTS-HD Master Audio
  36. Codec ID : A_DTS
  37. Duration : 1 h 35 min
  38. Bit rate mode : Variable
  39. Bit rate : 2 160 kb/s
  40. Channel(s) : 6 channels
  41. Channel layout : C L R Ls Rs LFE
  42. Sampling rate : 48.0 kHz
  43. Frame rate : 93.750 FPS (512 SPF)
  44. Bit depth : 16 bits
  45. Compression mode : Lossless
  46. Delay relative to video : 3 ms
  47. Stream size : 1.45 GiB (3%)
  48. Title : DTS-HD MA 5.1
  49. Language : English
  50. Default : Yes
  51. Forced : No

  52. Audio #2
  53. ID : 3
  54. Format : DTS
  55. Format/Info : Digital Theater Systems
  56. Codec ID : A_DTS
  57. Duration : 1 h 35 min
  58. Bit rate mode : Constant
  59. Bit rate : 768 kb/s
  60. Channel(s) : 6 channels
  61. Channel layout : C L R Ls Rs LFE
  62. Sampling rate : 48.0 kHz
  63. Frame rate : 93.750 FPS (512 SPF)
  64. Bit depth : 24 bits
  65. Compression mode : Lossy
  66. Stream size : 527 MiB (1%)
  67. Title : DTS 5.1
  68. Language : English
  69. Default : No
  70. Forced : No

  71. Audio #3
  72. ID : 4
  73. Format : AC-3
  74. Format/Info : Audio Coding 3
  75. Commercial name : Dolby Digital
  76. Codec ID : A_AC3
  77. Duration : 1 h 35 min
  78. Bit rate mode : Constant
  79. Bit rate : 640 kb/s
  80. Channel(s) : 6 channels
  81. Channel layout : L R C LFE Ls Rs
  82. Sampling rate : 48.0 kHz
  83. Frame rate : 31.250 FPS (1536 SPF)
  84. Compression mode : Lossy
  85. Stream size : 439 MiB (1%)
  86. Title : DD 5.1
  87. Language : English
  88. Service kind : Complete Main
  89. Default : No
  90. Forced : No

  91. Text
  92. ID : 5
  93. Format : UTF-8
  94. Codec ID : S_TEXT/UTF8
  95. Codec ID/Info : UTF-8 Plain Text
  96. Duration : 1 h 29 min
  97. Bit rate : 84 b/s
  98. Count of elements : 1422
  99. Stream size : 55.6 KiB (0%)
  100. Title : English-SRT
  101. Language : English
  102. Default : Yes
  103. Forced : No

  104. Menu
  105. 00:00:00.000 : Chapter 1
  106. 00:06:45.113 : Chapter 2
  107. 00:11:38.114 : Chapter 3
  108. 00:18:29.358 : Chapter 4
  109. 00:21:30.956 : Chapter 5
  110. 00:27:09.419 : Chapter 6
  111. 00:33:17.870 : Chapter 7
  112. 00:39:45.132 : Chapter 8
  113. 00:48:28.822 : Chapter 9
  114. 00:53:55.774 : Chapter 10
  115. 01:01:23.513 : Chapter 11
  116. 01:06:28.192 : Chapter 12
  117. 01:10:10.289 : Chapter 13
  118. 01:15:09.505 : Chapter 14
  119. 01:17:34.608 : Chapter 15
  120. 01:24:09.961 : Chapter 16
复制代码

贝拉400哩的约定(港) / 为了与你相聚(台)/一条狗的回家路4KA.Dogs.Way.Home.2019.2160p.BCORE.WEB-DL.x265.10bit.HDR.DTS-HD.MA.5.1-4K电影下载

一条狗的回家路4K.A.Dogs.Way.Home.2019.2160p.BCORE.WEB-DL.x265.10bit.HDR.DTS-HD.MA.5.1 【4K HDR 51.17 GB】
[Hao4K]一条狗的回家路4K.A.Dogs.Way.Home.2019.2160p.BCORE.WEB-DL.x265.10bit.HDR.D.torrent (128.62 KB, 售价: 2 K币)
回复

使用道具 举报

全部回复44

Liuxudong926 发表于 2021-5-5 09:48:17 Hao4K手机版

Liuxudong926 沙发

2021-5-5 09:48:17

这就是那个用半辈子找到主人的故事?
刚刚另一贴还有人评价“狗做主角的电影都比较虐”……
回复 支持 反对

使用道具 举报

ltx5808 发表于 2021-5-5 09:55:47

ltx5808 板凳

2021-5-5 09:55:47

感谢分享!沙发?
回复 支持 反对

使用道具 举报

aftok123 发表于 2021-5-5 10:11:30

aftok123 地板

2021-5-5 10:11:30


感谢分享!板凳
回复 支持 反对

使用道具 举报

LOCKPAT 发表于 2021-5-5 10:14:11

LOCKPAT 5#

2021-5-5 10:14:11

感谢分享!
回复 支持 反对

使用道具 举报

xhl079669 发表于 2021-5-5 10:14:35

xhl079669 6#

2021-5-5 10:14:35

感谢分享,地板o(* ̄︶ ̄*)o
回复 支持 反对

使用道具 举报

yangly 发表于 2021-5-5 11:44:25

yangly 7#

2021-5-5 11:44:25


感谢分享!
回复 支持 反对

使用道具 举报

justinfeng11 发表于 2021-5-5 12:36:06

justinfeng11 8#

2021-5-5 12:36:06

感谢分享!下来看看!!
回复 支持 反对

使用道具 举报

fsy2046 发表于 2021-5-5 12:39:40

fsy2046 9#

2021-5-5 12:39:40


感谢分享!下来看看
回复 支持 反对

使用道具 举报

panbell 发表于 2021-5-5 13:33:16

panbell 10#

2021-5-5 13:33:16

谢谢楼主分享
回复 支持 反对

使用道具 举报

nagual 发表于 2021-5-5 15:04:50

nagual 11#

2021-5-5 15:04:50

这个电影听说还不错···
回复 支持 反对

使用道具 举报

aabbccddeeff 发表于 2021-5-5 15:35:38

aabbccddeeff 12#

2021-5-5 15:35:38

这些题材容易拍得平庸,看下这部如何吧。
回复 支持 反对

使用道具 举报

GXD639 发表于 2021-5-5 16:37:46

GXD639 13#

2021-5-5 16:37:46

感谢无私分享
回复 支持 反对

使用道具 举报

cardinlai 发表于 2021-5-5 16:48:37

cardinlai 14#

2021-5-5 16:48:37

感谢分享!
回复 支持 反对

使用道具 举报

q641642125 发表于 2021-5-5 17:48:10

q641642125 15#

2021-5-5 17:48:10

感谢大神的分享 谢谢
回复 支持 反对

使用道具 举报

dtq007007 发表于 2021-5-5 18:23:42

dtq007007 16#

2021-5-5 18:23:42

要是来写新片子有多好。敬请期待
回复 支持 反对

使用道具 举报

dk30129 发表于 2021-5-5 19:17:41

dk30129 17#

2021-5-5 19:17:41

谢谢分享,顶你!!!
回复 支持 反对

使用道具 举报

dtq007007 发表于 2021-5-5 21:04:01

dtq007007 18#

2021-5-5 21:04:01

okoko谢谢欣赏
回复 支持 反对

使用道具 举报

   发表回复

您需要登录后才可以回帖 登录 | 立即注册

返回列表 本版积分规则

  • 在线客服

  • 返回顶部