微博 微信

Hao4K影音

[普效字幕] 低俗小说4K版本 Pulp fiction 2160P中英字幕

2021-6-9 19:54:01 10295 6 |只看大图 回帖奖励 |倒序浏览 |阅读模式

薄荷茶 帖主

2021-5-11 17:59:18

电影字幕
电影名称: 低俗小说 4K版本 Pulp fiction 2160P
字幕格式: SSA 
电影链接: https://www.hao4k.cn/thread-56934-1-1.html
字幕效果: 普通字幕
2345_image_file_copy_2.jpg
7 `* \4 m. E1 u5 ?) q" g& c低俗小说4K版本 Pulp fiction 2160P中英字幕下载+ ~/ H9 ?: o: E7 t
Pulp fiction 4Kreescalado2160.pctfenix.com.zip (82.22 KB, 售价: 1 K币)

评分

参与人数 1K币 +10 收起 理由
花落无声 + 10 谢谢分享!

查看全部评分

回复

使用道具 举报

全部回复6

lulu840314 发表于 2021-5-11 18:53:45

lulu840314 2

2021-5-11 18:53:45

经典中的,经典
回复 支持 反对

使用道具 举报

唐人啸 发表于 2021-5-11 19:43:24

唐人啸 3

2021-5-11 19:43:24

经典中的,经典
回复 支持 反对

使用道具 举报

svips163 发表于 2021-5-11 20:19:53

svips163 4

2021-5-11 20:19:53

无人可以超越的经典。昆汀这个神一样的鬼才导演。。。每次都是那么有风格。人物之间的对话暗藏杀机。这是我最喜欢的,让你在听觉中不断的在预判着接下来会转动什么盘
回复 支持 反对

使用道具 举报

375714392 发表于 2021-6-9 18:50:42

375714392 5

2021-6-9 18:50:42

是4K修复吗,跟网上卖的1080有区别吗
# a8 N9 }4 @4 F0 O: O! }
回复 支持 反对

使用道具 举报

薄荷茶 发表于 2021-6-9 19:53:01

薄荷茶 6

2021-6-9 19:53:01

General
, B3 u+ }: b# h/ H" y/ zUnique ID                      : 176559610871735897341531487758803562384 (0x84D424E752EEB442A552346917C86F90)( o" l8 }: E  T) w% ^, T
Complete name                  : E:\Downloads\4K低俗小说Pulp fiction [4K UHDreescaldo][2160p][HDR10][AC3 5.1-DTS 5.1 Castellano-DTS-HD 5.1-Ingles+Subs][ES-EN]\Pulp fiction 4Kreescalado2160.pctfenix.com .mkv& a! ?! K) B7 B% G+ j3 ^! m4 ^! K
Format                         : Matroska8 Y! i! \8 y9 Z2 R3 w
Format version                 : Version 4, R& ^1 y7 k9 F7 t, ~+ A
File size                      : 20.1 GiB& q& Y- E' I/ M' l
Duration                       : 2 h 34 min
( J  l5 e/ U* y/ \Overall bit rate               : 18.6 Mb/s
* n1 s4 ?$ v& X, GMovie name                     : Pulp fiction HD1080  W+ l# M0 z6 k# V& F# B6 e
Encoded date                   : UTC 2021-05-11 09:41:24$ f6 m8 M8 u& t  A6 @) Z( A
Writing application            : mkvmerge v7.5.0 ('Glass Culture') 32bit built on Jan  4 2015 16:37:25- x# [, V' i5 q! W! |
Writing library                : libebml v1.3.1 + libmatroska v1.4.2$ a* Q, U0 d9 D0 g
6 c. b' O+ Y1 ?' l) y& i5 O
Video
5 W  f( k! L$ e2 b" mID                             : 1( c8 f  H' G- Q
Format                         : HEVC
/ b. y# I# \0 u- k- n, l2 RFormat/Info                    : High Efficiency Video Coding4 f: W  U  ~" y' r) o) x" P- u
Format profile                 : Main 10@L5.1@High" G& V' f0 \2 o. ~
HDR format                     : SMPTE ST 2086, HDR10 compatible. V; m+ d; E  S6 Q/ e# L
Codec ID                       : V_MPEGH/ISO/HEVC
3 S' ^9 z" w) ?3 XDuration                       : 2 h 34 min' K! N$ o; [! y! C; \1 i+ ?9 n! @. {
Bit rate                       : 18.2 Mb/s: ?9 V9 L2 s7 v# r8 H5 M4 J8 C
Width                          : 3 840 pixels
- S  h5 \0 T: THeight                         : 1 632 pixels
8 J% |8 T! p0 l! x/ ^6 {Display aspect ratio           : 2.35:1
3 b. ~! c+ e3 [% ]  pFrame rate mode                : Constant1 w' E' |4 g3 m3 A
Frame rate                     : 23.976 (24000/1001) FPS
. V6 P# e& U' F& SColor space                    : YUV
' `* p( B! Z8 [5 ^: Z. S1 ]Chroma subsampling             : 4:2:0
+ E6 G* e9 U! h3 S! K" UBit depth                      : 10 bits
& p+ d, M5 K/ H: W0 C; p0 N' wBits/(Pixel*Frame)             : 0.121
# t2 `% O- \9 O: X3 @Stream size                    : 19.6 GiB (98%). d% I6 }8 M+ t3 P, Q! t
Title                          : Pulp fiction HD1080- U' V0 b5 l* C
Default                        : Yes
6 _; y/ I, o( C2 }, r* fForced                         : No
. ^! y9 s( f+ N4 VColor range                    : Limited' e/ W3 U% D5 O/ F
Color primaries                : BT.2020' x$ f/ O' [$ T% [4 g5 |" c
Transfer characteristics       : PQ3 \8 R, a# X1 Q3 q
Matrix coefficients            : BT.2020 non-constant
8 N0 V, z. @: f! c' _+ {2 n' XMastering display color primar : Display P3
+ Q& w+ ^" R0 E. I6 V( nMastering display luminance    : min: 0.0001 cd/m2, max: 1000 cd/m2
% o6 ], G2 b' f: I4 j, YMaximum Content Light Level    : 6000 cd/m2! L( P. I# L2 J* o0 R; b
Maximum Frame-Average Light Le : 640 cd/m2
( \6 I$ {% b2 s( j4 n. c: Y" v7 D- }; l
Audio# ^+ K; z+ Z. N8 u9 ^1 T  {* O
ID                             : 2
) ?- k* D+ |: S& W) O# G7 XFormat                         : AC-3$ c1 {  E# g. B( {# f+ t
Format/Info                    : Audio Coding 3$ N- H$ a5 }. F, Q: n* w2 l
Commercial name                : Dolby Digital! m- \9 B  i/ b9 H, W
Codec ID                       : A_AC3( K% P; Z5 x' J; s
Duration                       : 2 h 34 min
9 V0 r8 s% I- FBit rate mode                  : Constant
1 W4 ]/ A% {) v7 g  }% q4 z7 b' ]Bit rate                       : 448 kb/s
! j% T: h' W% {. }/ y( j( c+ yChannel(s)                     : 6 channels/ o' ?' F: o* V: n+ M. J+ H
Channel layout                 : L R C LFE Ls Rs3 ~& m% l. j- M; \! n7 [5 p, S1 w) N
Sampling rate                  : 48.0 kHz4 @; A# F# @8 K1 K9 K( v* q
Frame rate                     : 31.250 FPS (1536 SPF)
- B* ~: s( N8 D/ rCompression mode               : Lossy
, x  m, _7 b1 Q& D" e" O  o  g  J8 `Delay relative to video        : 2 s 150 ms
) y" t8 r; t* H1 i2 A& ~  eStream size                    : 495 MiB (2%)5 F. `) ]0 R+ I1 U
Title                          : AC3 5.1 ingles
" O6 j9 I2 E1 }8 ^* g7 O  j. u  mLanguage                       : English  o5 s" b/ C& C( k
Service kind                   : Complete Main" v/ y. N6 G4 p* \# S) l7 [
Default                        : No" D+ d# L$ T& h. G! B0 O
Forced                         : No
! w4 T5 ?. F4 e$ c' a' S
1 R" W/ q+ P; m0 ^Text #1: G% `! l7 Z7 T% i- z' b
ID                             : 3
. }& D* ?. m8 u! vFormat                         : PGS/ g6 y/ {3 A% q+ R& w2 }6 N
Muxing mode                    : zlib
1 F& H, a' A4 I6 RCodec ID                       : S_HDMV/PGS$ ?8 d" w3 }: N, m3 b
Codec ID/Info                  : Picture based subtitle format used on BDs/HD-DVDs
$ D: C2 \4 O2 o% N1 k$ V" H# hDuration                       : 2 h 28 min
# O1 ~% [6 e' P  a& dBit rate                       : 14.7 kb/s, [2 i' p% z0 R# H# O. j6 o/ q
Count of elements              : 4082
& A9 J! {$ I& r" E. M  d2 SStream size                    : 15.6 MiB (0%)' W0 K: n3 G# ^3 |
Language                       : English
/ l( o$ k3 o6 @9 `Default                        : No
3 G$ f; h8 H3 J5 D7 Q3 p2 S) |Forced                         : No
, `' L) r0 d. S5 G- S
4 C; f; V) M+ f* ^; K+ zText #2
6 w/ e* z4 x! ^: {& w$ Y# QID                             : 46 j6 u& p5 U% X2 x
Format                         : UTF-8
1 A1 H# ^- p, t3 c0 cCodec ID                       : S_TEXT/UTF8
. i) O+ q0 x% l; B' _) _" ^Codec ID/Info                  : UTF-8 Plain Text
3 g: ^* Q5 U! s/ E$ U2 D) VDuration                       : 2 h 28 min
6 W( Y. S2 m9 `9 ^! G! I6 ]- wBit rate                       : 78 b/s
1 ]+ V7 T! j0 I- ]& NCount of elements              : 2041
1 q3 c' Q1 F, {4 P. N. ^) uStream size                    : 85.4 KiB (0%)
' N5 s/ m* P: N( k6 e8 _7 cLanguage                       : English0 q$ u1 }- N( T1 w8 ]+ |0 R
Default                        : No
: ^/ R3 r2 @9 fForced                         : No, i: |: V3 F. c1 K7 Q$ T: w
( a+ D+ O4 h0 E; G; F. a0 `& B
Text #3' r# S' R. W" S# q8 z. h
ID                             : 5
6 ~7 \. L( [) V9 O/ aFormat                         : SSA
; T7 p& n, }; ^6 YCodec ID                       : S_TEXT/SSA' d0 f$ F, N  U/ g
Codec ID/Info                  : Sub Station Alpha) X0 w1 p) j6 I. y+ g! _) S
Duration                       : 2 h 29 min
5 h+ a/ ~: `: ~) m1 f% ZBit rate                       : 311 b/s6 \2 p0 H' ^8 {; y% ^
Count of elements              : 1754
  ~+ F" V) ?, `! m8 t! vCompression mode               : Lossless$ s& L- v% P3 r' I( t  j
Stream size                    : 342 KiB (0%)& ~! {$ u1 F+ z) r- ^& ^
Default                        : Yes
8 K% `9 G, g+ T! T7 D+ j, m6 ]$ PForced                         : No
3 Z3 n0 r, ~& w8 n5 t* f- l
. w) I1 u2 q. @* t1 W( ZMenu
7 N. i( p, Y! d( ^8 p9 `" J00:00:00.000                   : enrologue7 `1 i5 r$ x: f( ?
00:07:05.842                   : en:Royale with Cheese
3 p4 B* q  q/ @6 D00:14:25.406                   : en:Ezekiel 25:178 m; c" C, l0 |+ t6 U! b
00:21:08.475                   : en:Boxers Don't Have an Old-Timers' Day
3 D0 x( X& w( p% O7 i# [00:31:21.671                   : en:Son of a Preacher Man
9 h3 g* g0 i, R  ], j5 d3 I% ]00:34:11.758                   : en:Jack Rabbit Slim's
6 u0 J* m2 V8 r) v8 @00:49:56.993                   : en:Girl, You'll Be a Woman Soon
! L, i# T1 d, x' {7 u) S6 K00:54:49.286                   : en:Adrenaline# g" B$ o( E0 F0 V# ~* V% W3 U
01:03:31.599                   : en:Captain Koons' Story
$ F2 |5 S  ?+ ~- o; j6 I) o7 x01:14:53.071                   : en:I Wish I Had a Pot, E" G, |$ z+ n+ {% @1 r
01:22:38.745                   : en:Where's My Watch?
* R2 @2 x8 E0 M& \& j) g7 N01:33:53.336                   : en:Flowers on the Wall' x& ^) g% u4 {
01:37:40.271                   : en:Bring out the Gimp
5 ^7 D0 L, y! r6 V% @01:49:15.799                   : en:Zed's Dead, Baby. Zed's Dead.
2 _- L0 a. @  A- Y, v01:55:11.404                   : en:I Shot Marvin in the Face- n9 Q7 F4 }  N* _9 O1 S
02:13:21.868                   : en:The Shepherd
3 C& S+ _+ R4 L: P9 A02:34:26.840                   : en:
( o4 O6 G- H) n, B+ Z) E5 A
; R- `) U+ ?, B' ~
回复 支持 反对

使用道具 举报

薄荷茶 发表于 2021-6-9 19:54:01

薄荷茶 7

2021-6-9 19:54:01

[滤镜使用列表]
( a/ C! ?% f$ k6 d! `# A" [  (1) Built-in MKV Source
' f. {) O. z$ x2 ?9 m  (2) Built-in Video Codec/Transform& u$ @/ N) G  C2 b: q' l
  (3) Enhanced Video Renderer(Custom Present)
3 c# E- S  D1 ^- o( ?  (4) Built-in Audio Codec/Transform0 m# _0 }* q" c7 M& Y/ ?
  (5) DirectSound Audio Renderer
/ j, c- _- ~1 C+ c3 F# U1 b, @. E& r4 e+ H6 H7 ]: O
[视频信息]; L, q- ~, t- h2 L% K5 }
  视频编码: HVC1 - Native D3D9 DXVA Decoder(VLD) - NVIDIA GeForce GTX 1050 Ti
" u  L! e; s1 p  \+ ~' o4 t  输入格式: HVC1(24 bits)
& c4 G  N" S2 s7 \% O  输入尺寸: 3840 × 1632(2.35:1)
/ @) p/ x5 G, q- z2 n9 B. D; n/ a: N  输出格式: dxva
, `( U2 G! P, X/ P. k: z  输出尺寸: 3840 × 1632(2.35:1)  j8 y: x1 ~2 v. A9 @( d6 S
  帧率: 23.976
% E; t7 [4 @6 h$ o  BitRate: 未知
8 l8 `2 L: {/ ^  q; V4 G! ^/ }1 ?1 z1 k7 m
[音频信息]. q* b  N3 K* X/ @' ^
  音频编码: Dolby AC3(0x2000) - 内置 FFmpeg 解码器(ac3)
* v2 _% M& d* |7 u; U; e( o  采样率: 48000 -> 48000 Hz
0 o, Z# c, t4 M  M  位率: 0 -> 16 位5 X) |) J" {2 ^2 q$ j0 S4 j
  声道数: 6 -> 2 声道
* O! B4 s. f% m4 y. V: {, y  Bitrate: 448 kbps
# |4 a4 k: m% U& O3 j
回复 支持 反对

使用道具 举报

   发表回复

您需要登录后才可以回帖 登录 | 立即注册

返回列表 本版积分规则

:
青铜玩家
:
未填写

主题

帖子

积分378

关闭

站内通知上一条 /1 下一条

  • 在线客服

  • 返回顶部