微博 微信

Hao4K影音

电影频道
电影封面:
片  名: 神奇燕尾服4K
电影分类: 动作 科幻 惊悚 喜剧 
国  家: 美国 
年  代: 00年代
分 辨 率: 4K(3840x2160)
电影格式: MKV|REMUX 
画质标准: HDR 
音质编码: Dolby Digital Plus Audio 
电影声道: 5.1声道 
帧数/FPS: 23.976 帧
电影语言: 英文原版 
资源大小: 10.08 GB
导  演: 凯文·多诺万
豆瓣评分: 6.3 分
中文字幕: /thread-57313-1-1.html
剧情简介: 出租车司机吉米·唐(成龙 饰)是个在自己心仪女子面前缺乏自信的家伙,所经反复排练但还是会在上阵时手足无措。飚出租车是他唯一所长,拥有因超速被九次吊扣执照的光荣记录,也因这一点被富翁戴弗林(Jason Isaacs 饰)的助手选中,担任戴弗林的司机。
  戴弗林的另一身份是情报局局长,此时正全力调查一宗饮用水公司的商业阴谋。唐被戴弗林优雅的举动深深折服,两人合作融洽,不料一日两人遭滑板炸弹袭击,戴弗林重伤,昏迷前将家中严禁触碰的燕尾服交予唐使用,并留下“沃特史崔达”的莫名词句。
  唐无奈之下只得扮演戴弗林的角色,接受安全部门的指令,但他很快发现那件燕尾服不同寻常!用腕表调控相关模式便可以让着衣者拥有超人般的身手。唐要仰仗这件高科技战衣与美丽的菜鸟探员黛儿·布兰妮(Jennifer Love Hewitt 饰)合作,用他们的乌龙方式查清班尼公司的真相……
燕尾服(台) / 特务踢死兔(港) / 神奇西服 / T.U.X./神奇燕尾服4K.The.Tuxedo.2002.HDR.2160p.WEB.h265-4k电影信息
  1. Video
  2. ID : 1
  3. Format : HEVC
  4. Format/Info : High Efficiency Video Coding
  5. Format profile : Main 10@L5@Main
  6. HDR format : SMPTE ST 2094 App 4, Version 1, HDR10+ Profile B compatible
  7. Codec ID : V_MPEGH/ISO/HEVC
  8. Duration : 1 h 38 min
  9. Bit rate : 15.0 Mb/s
  10. Width : 3 840 pixels
  11. Height : 2 080 pixels
  12. Display aspect ratio : 1.85:1
  13. Frame rate mode : Constant
  14. Frame rate : 23.976 (24000/1001) FPS
  15. Color space : YUV
  16. Chroma subsampling : 4:2:0
  17. Bit depth : 10 bits
  18. Bits/(Pixel*Frame) : 0.078
  19. Stream size : 10.3 GiB (96%)
  20. Language : English
  21. Default : Yes
  22. Forced : No
  23. Color range : Limited
  24. Color primaries : BT.2020
  25. Transfer characteristics : PQ
  26. Matrix coefficients : BT.2020 non-constant
  27. Mastering display color primaries : Display P3
  28. Mastering display luminance : min: 0.0001 cd/m2, max: 1000 cd/m2
  29. Maximum Content Light Level : 1000 cd/m2
  30. Maximum Frame-Average Light Level : 501 cd/m2

  31. Audio
  32. ID : 2
  33. Format : E-AC-3
  34. Format/Info : Enhanced AC-3
  35. Commercial name : Dolby Digital Plus
  36. Codec ID : A_EAC3
  37. Duration : 1 h 38 min
  38. Bit rate mode : Constant
  39. Bit rate : 640 kb/s
  40. Channel(s) : 6 channels
  41. Channel layout : L R C LFE Ls Rs
  42. Sampling rate : 48.0 kHz
  43. Frame rate : 31.250 FPS (1536 SPF)
  44. Compression mode : Lossy
  45. Stream size : 452 MiB (4%)
  46. Language : English
  47. Service kind : Complete Main
  48. Default : Yes
  49. Forced : No

  50. Text
  51. ID : 3
  52. Format : UTF-8
  53. Codec ID : S_TEXT/UTF8
  54. Codec ID/Info : UTF-8 Plain Text
  55. Duration : 1 h 32 min
  56. Bit rate : 70 b/s
  57. Count of elements : 1400
  58. Stream size : 47.5 KiB (0%)
  59. Title : English
  60. Language : English
  61. Default : No
  62. Forced : No
复制代码

燕尾服(台) / 特务踢死兔(港) / 神奇西服 / T.U.X./神奇燕尾服4K.The.Tuxedo.2002.HDR.2160p.WEB.h265-4K电影下载

神奇燕尾服4K.The.Tuxedo.2002.HDR.2160p.WEB.h265【4K HDR 10.08 GB】
[Hao4K]神奇燕尾服4K.The.Tuxedo.2002.HDR.2160p.WEB.h265-RUMOUR.torrent (54.66 KB)
回复

使用道具 举报

全部回复7

panbell 发表于 2021-5-12 10:21:59

panbell 2

2021-5-12 10:21:59

特务踢死兔
回复 支持 反对

使用道具 举报

fqasd8625684 发表于 2021-5-12 11:26:50

fqasd8625684 3

2021-5-12 11:26:50

感谢,很久以前看过的电影了
回复 支持 反对

使用道具 举报

blackhead 发表于 2021-5-12 11:34:26

blackhead 4

2021-5-12 11:34:26

謝謝樓主分享
回复 支持 反对

使用道具 举报

liyun80000 发表于 2021-5-12 11:35:21

liyun80000 5

2021-5-12 11:35:21

感谢分享。
回复 支持 反对

使用道具 举报

xxw8888 发表于 2021-5-12 12:45:10

xxw8888 6

2021-5-12 12:45:10


感谢分享。
回复 支持 反对

使用道具 举报

lqy0500 发表于 2021-5-12 13:06:49

lqy0500 7

2021-5-12 13:06:49

感谢分享
回复 支持 反对

使用道具 举报

RaymondHao 发表于 2021-5-12 14:14:33

RaymondHao 8

2021-5-12 14:14:33

謝謝分享,期待已久
回复 支持 反对

使用道具 举报

   发表回复

您需要登录后才可以回帖 登录 | 立即注册

返回列表 本版积分规则

  • 在线客服

  • 返回顶部