微博 微信

Hao4K影音

电影频道
电影封面:
片  名: 金童子4k
电影分类: 动作 冒险 悬疑 喜剧 奇幻 
国  家: 美国 
年  代: 80年代
分 辨 率: 4K(3840x2160)
电影格式: MKV|REMUX 
画质标准: HDR 
音质编码: Dolby Digital Audio 
电影声道: 5.1声道 
帧数/FPS: 23.976 帧
电影语言: 英文原版 
资源大小: 2.3 GB
导  演: 迈克尔·瑞奇
豆瓣评分: 5.5 分
中文字幕: -
剧情简介: 由首席黑人喜剧红星埃迪.墨菲与夏洛特.路维丝主演的奇幻冒险动作喜剧,出色的特效视觉效果,气氛紧张激烈。在遥远的东方世界西藏,一个男孩带着数代承传的神奇力量诞生了,他的使命是将光明之事带到这个世界上。但是,一个被邪恶势力所控制的庙宇发现这个小男孩是地球上最重要的人物时,以撒陀魔为首的邪恶势力绑架了这个“小金童”,地球的前途未卜。此时,一位洛杉矶的社工员(艾迪墨菲 饰)突然被一名先知者告知,他已被上天选为是拯救小金童的人选,于是,社工员变为热血侠士,他在功夫女郎姬的大力协助下,因此展开了一段长途跋涉的奇幻之旅,两人从东方取回了降魔杵,开始了与撒陀魔的正邪大战,从加州到中国,甚而游走到了地狱!
横扫千军/金童子4k The Golden Child 1986 2160p.电影信息
  1. Video
  2. ID : 1
  3. Format : HEVC
  4. Format/Info : High Efficiency Video Coding
  5. Format profile : Main [email protected]@High
  6. Codec ID : V_MPEGH/ISO/HEVC
  7. Duration : 1 h 33 min
  8. Bit rate : 3 074 kb/s
  9. Width : 3 840 pixels
  10. Height : 2 160 pixels
  11. Display aspect ratio : 16:9
  12. Frame rate mode : Constant
  13. Frame rate : 23.976 (24000/1001) FPS
  14. Color space : YUV
  15. Chroma subsampling : 4:2:0
  16. Bit depth : 10 bits
  17. Bits/(Pixel*Frame) : 0.015
  18. Stream size : 2.01 GiB (89%)
  19. Writing library : x265 3.2.1+1-b5c86a64bbbe:[Windows][GCC 9.2.0][64 bit] 10bit
  20. Color range : Full
  21. Color primaries : BT.2020
  22. Transfer characteristics : PQ
  23. Matrix coefficients : BT.2020 non-constant

  24. Audio
  25. ID : 2
  26. Format : AC-3
  27. Format/Info : Audio Coding 3
  28. Commercial name : Dolby Digital
  29. Codec ID : A_AC3
  30. Duration : 1 h 33 min
  31. Bit rate mode : Constant
  32. Bit rate : 320 kb/s
  33. Channel(s) : 6 channels
  34. Channel layout : L R C LFE Ls Rs
  35. Sampling rate : 48.0 kHz
  36. Frame rate : 31.250 FPS (1536 SPF)
  37. Compression mode : Lossy
  38. Delay relative to video : -5 ms
  39. Stream size : 214 MiB (9%)
  40. Title : Surround
  41. Language : English

  42. Text
  43. Language : French
  44. Language : French
  45. Default : No
  46. Forced : No

  47. Menu
  48. 00:00:00.000 : :Kidnapped
  49. 00:05:54.354 : :Lost Children
  50. 00:10:46.646 : :He's No Angel
  51. 00:13:10.123 : :Already On the Case
  52. 00:17:11.697 : :The Chosen One
  53. 00:22:04.657 : :You Will Eat
  54. 00:25:12.177 : :A Vision of the Child
  55. 00:27:10.295 : :The Yellow Dragons
  56. 00:34:03.375 : :Tommy Tong's
  57. 00:37:17.569 : :The Ajanti Dagger
  58. 00:39:09.681 : :An Attractive Offer
  59. 00:44:50.021 : :A Dagger for a Child
  60. 00:47:47.531 : :Tibet
  61. 00:55:38.669 : :Stay On The Path
  62. 01:04:01.171 : :So Little Understanding
  63. 01:07:53.403 : :Viva Nepal!
  64. 01:11:05.595 : :My Brother Numspa
  65. 01:13:37.079 : :A Pure Heart
  66. 01:18:20.696 : :Freeing The Child
  67. 01:26:18.507 : :Sundown
  68. 01:29:36.037 : :End Credits
复制代码

横扫千军/金童子4k The Golden Child 1986 2160p.电影下载
金童子4k.txt (99 Bytes)
回复

使用道具 举报

全部回复3

gxt2004 发表于 2021-5-12 19:08:34

gxt2004 2

2021-5-12 19:08:34

喜欢老电影,谢谢
回复 支持 反对

使用道具 举报

刘大志 发表于 2021-5-18 11:49:02

刘大志 3

2021-5-18 11:49:02

感谢分享
回复 支持 反对

使用道具 举报

珊瑚坝放风筝 发表于 2021-5-18 21:54:25

珊瑚坝放风筝 4

2021-5-18 21:54:25

谢谢楼主分享
回复 支持 反对

使用道具 举报

   发表回复

您需要登录后才可以回帖 登录 | 立即注册

返回列表 本版积分规则

关闭

站内通知上一条 /1 下一条

  • 在线客服

  • 返回顶部