微博 微信

Hao4K影音

电影频道
电影封面:
片  名: 电动方程式:国际汽联的电动赛事4k
电影分类: 纪录片 
国  家: 英国 
年  代: 2021年
分 辨 率: 4K(3840x2160)
电影格式: MKV|REMUX 
画质标准: 其他 
音质编码: Dolby Digital Audio 
电影声道: 其他 
帧数/FPS: 50.000 帧
电影语言: 英文原版 
资源大小: 5.3 GB
导  演: 暂无
豆瓣评分: 0 分
中文字幕: -
剧情简介:  In celebration of ABB FIA Formula E’s new World Championship status in 2020/21, the Fédération Internationale de l’Automobile (FIA) has collaborated with Formula E to produce a 26-minute film looking back over the first six seasons of the ground-breaking electric single-seater series – while providing a glimpse of its future.
电动方程式:国际汽联的电动赛事4k Formula-E 2021 - Round 04 Rome E-Prix Qualy & Race 2160p纪录片信息
  1. Video
  2. ID : 1
  3. Format : HEVC
  4. Format/Info : High Efficiency Video Coding
  5. Format profile : Main [email protected]@Main
  6. Codec ID : V_MPEGH/ISO/HEVC
  7. Duration : 22 min 35 s
  8. Bit rate : 6 033 kb/s
  9. Width : 3 840 pixels
  10. Height : 2 160 pixels
  11. Display aspect ratio : 16:9
  12. Frame rate mode : Constant
  13. Frame rate : 50.000 FPS
  14. Color space : YUV
  15. Chroma subsampling : 4:2:0
  16. Bit depth : 10 bits
  17. Bits/(Pixel*Frame) : 0.015
  18. Stream size : 975 MiB (93%)
  19. Writing library : x265 3.2.1+1-b5c86a64bbbe:[Windows][GCC 9.2.0][64 bit] 10bit

  20. Default : Yes
  21. Forced : No
  22. Color range : Limited
  23. Color primaries : BT.709
  24. Transfer characteristics : BT.709
  25. Matrix coefficients : BT.709

  26. Audio #1
  27. ID : 2
  28. Format : AC-3
  29. Format/Info : Audio Coding 3
  30. Commercial name : Dolby Digital
  31. Codec ID : A_AC3
  32. Duration : 22 min 35 s
  33. Bit rate mode : Constant
  34. Bit rate : 160 kb/s
  35. Channel(s) : 2 channels
  36. Channel layout : L R
  37. Sampling rate : 48.0 kHz
  38. Frame rate : 31.250 FPS (1536 SPF)
  39. Compression mode : Lossy
  40. Delay relative to video : -5 ms
  41. Stream size : 25.8 MiB (2%)
  42. Title : Stereo
  43. Language : Russian
  44. Service kind : Complete Main
  45. Default : Yes
  46. Forced : No

  47. Audio #2
  48. ID : 3
  49. Format : AC-3
  50. Format/Info : Audio Coding 3
  51. Commercial name : Dolby Digital
  52. Codec ID : A_AC3
  53. Duration : 22 min 35 s
  54. Bit rate mode : Constant
  55. Bit rate : 160 kb/s
  56. Channel(s) : 2 channels
  57. Channel layout : L R
  58. Sampling rate : 48.0 kHz
  59. Frame rate : 31.250 FPS (1536 SPF)
  60. Compression mode : Lossy
  61. Delay relative to video : -5 ms
  62. Stream size : 25.8 MiB (2%)
  63. Title : Stereo
  64. Language : English
  65. Service kind : Complete Main
  66. Default : No
  67. Forced : No
复制代码

电动方程式:国际汽联的电动赛事4k Formula-E 2021 - Round 04 Rome E-Prix Qualy & Race 2160p纪录片下载
电动方程式:国际汽联的电动赛事4k.txt (135 Bytes)
回复

使用道具 举报

全部回复9

mega 发表于 2021-5-13 00:00:06

mega 2

2021-5-13 00:00:06

谢谢分享,辛苦
回复 支持 反对

使用道具 举报

lywzj238 发表于 2021-5-13 07:25:07

lywzj238 3

2021-5-13 07:25:07

谢谢分享好电影
回复 支持 反对

使用道具 举报

raymondcmu 发表于 2021-5-13 10:34:26

raymondcmu 4

2021-5-13 10:34:26


谢谢分享,辛苦
回复 支持 反对

使用道具 举报

affece 发表于 2021-5-13 13:06:54

affece 5

2021-5-13 13:06:54


谢谢分享好电影
回复 支持 反对

使用道具 举报

pengwencong 发表于 2021-5-13 21:23:29

pengwencong 6

2021-5-13 21:23:29

喜欢看赛车,常去天马赛车场
回复 支持 反对

使用道具 举报

hyskoalq 发表于 2021-5-14 01:39:48

hyskoalq 7

2021-5-14 01:39:48

感谢分享
回复 支持 反对

使用道具 举报

lqsong 发表于 2021-5-14 08:18:30

lqsong 8

2021-5-14 08:18:30

电竞主题谢谢分享
回复 支持 反对

使用道具 举报

ARFEI 发表于 2021-5-14 08:52:22

ARFEI 9

2021-5-14 08:52:22

很少关注汽车比赛,没想到有这样的比赛,多谢分享。
回复 支持 反对

使用道具 举报

qd1999 发表于 2021-5-14 22:24:05

qd1999 10

2021-5-14 22:24:05

谢谢分享
回复 支持 反对

使用道具 举报

   发表回复

您需要登录后才可以回帖 登录 | 立即注册

返回列表 本版积分规则

  • 在线客服

  • 返回顶部