微博 微信

Hao4K影音

电影频道
电影封面:
片  名: 小鬼当家2 4k
电影分类: 犯罪 喜剧 
国  家: 美国 
年  代: 90年代
分 辨 率: 4K(3840x2160)
电影格式: MKV|REMUX 
画质标准: HDR 
音质编码: DTS-HD Master Audio 
电影声道: 5.1声道 
帧数/FPS: 23.976 帧
电影语言: 英文原版 
资源大小: 17.06 GB
导  演: 克里斯·哥伦布
豆瓣评分: 8.0 分
中文字幕: -
剧情简介: 又一年圣诞节来临,上集因被遗忘在家而没有去成圣诞旅游的凯文(麦考利·卡尔金 Macaulay Culkin 饰)今年和家人准备到佛罗里达去享受他们的圣诞假期。粗心的爸爸妈妈这次当然不会再忘记带上凯文,但他们丢三落四的性格没有改变。眼看飞机准备起飞了,一家子才急冲冲的赶到机场。这次凯文没被忘在家里,却在登记时被忘在了机场,阴差阳错的登上了飞往纽约的航班!第一次来到这个完全陌生的大城市,聪明捣蛋的凯文也不禁暗暗害怕。更糟糕的是,他竟然遇上了上一集在他家里被他修理得很惨的那两个笨贼。两人刚刚越狱出来,碰上了凯文,这次自然要一雪前耻。于是,凯文的战场从上一集的家里搬到了纽约的中央公园酒店和玩具反斗城!
宝贝智多星续集:玩转纽约(港) / 小鬼当家2:迷失纽约 / 小鬼当家2:纽约迷失记 / 独自在家2:迷失纽约/小鬼当家2 4k Home.Alone.2.Lost.in.New.York.1992.2160p.DSNP.WEB-DL.x265.10bit.HDR.DTS-HD.MA.5.1电影信息
  1. Video
  2. ID : 1
  3. Format : HEVC
  4. Format/Info : High Efficiency Video Coding
  5. Format profile : Main 10@L5@High
  6. Codec ID : V_MPEGH/ISO/HEVC
  7. Duration : 2 h 0 min
  8. Bit rate : 16.4 Mb/s
  9. Width : 3 840 pixels
  10. Height : 2 160 pixels
  11. Display aspect ratio : 16:9
  12. Frame rate mode : Constant
  13. Frame rate : 23.976 (24000/1001) FPS
  14. Color space : YUV
  15. Chroma subsampling : 4:2:0
  16. Bit depth : 10 bits
  17. Bits/(Pixel*Frame) : 0.082
  18. Stream size : 13.7 GiB (81%)
  19. Default : Yes
  20. Forced : No
  21. Color range : Limited
  22. Color primaries : BT.2020
  23. Transfer characteristics : PQ
  24. Matrix coefficients : BT.2020 non-constant

  25. Audio #1
  26. ID : 2
  27. Format : DTS XLL
  28. Format/Info : Digital Theater Systems
  29. Commercial name : DTS-HD Master Audio
  30. Codec ID : A_DTS
  31. Duration : 2 h 0 min
  32. Bit rate mode : Variable
  33. Bit rate : 3 707 kb/s
  34. Channel(s) : 6 channels
  35. Channel layout : C L R Ls Rs LFE
  36. Sampling rate : 48.0 kHz
  37. Frame rate : 93.750 FPS (512 SPF)
  38. Bit depth : 24 bits
  39. Compression mode : Lossless
  40. Delay relative to video : 3 ms
  41. Stream size : 3.11 GiB (18%)
  42. Title : DTS-HD MA 5.1
  43. Language : English
  44. Default : Yes
  45. Forced : No

  46. Audio #2
  47. ID : 3
  48. Format : E-AC-3
  49. Format/Info : Enhanced AC-3
  50. Commercial name : Dolby Digital Plus
  51. Codec ID : A_EAC3
  52. Duration : 2 h 0 min
  53. Bit rate mode : Constant
  54. Bit rate : 256 kb/s
  55. Channel(s) : 6 channels
  56. Channel layout : L R C LFE Ls Rs
  57. Sampling rate : 48.0 kHz
  58. Frame rate : 31.250 FPS (1536 SPF)
  59. Compression mode : Lossy
  60. Stream size : 220 MiB (1%)
  61. Title : DDP 5.1
  62. Language : English
  63. Service kind : Complete Main
  64. Default : No
  65. Forced : No

  66. Text #1
  67. ID : 4
  68. Format : UTF-8
  69. Codec ID : S_TEXT/UTF8
  70. Codec ID/Info : UTF-8 Plain Text
  71. Duration : 1 h 54 min
  72. Bit rate : 35 b/s
  73. Count of elements : 1106
  74. Stream size : 30.1 KiB (0%)
  75. Title : Korean
  76. Language : Korean
  77. Default : No
  78. Forced : No

  79. Text #2
  80. ID : 5
  81. Format : UTF-8
  82. Codec ID : S_TEXT/UTF8
  83. Codec ID/Info : UTF-8 Plain Text
  84. Duration : 1 h 56 min
  85. Bit rate : 46 b/s
  86. Count of elements : 1472
  87. Stream size : 39.4 KiB (0%)
  88. Title : English
  89. Language : English
  90. Default : No
  91. Forced : No

  92. Text #3
  93. ID : 6
  94. Format : UTF-8
  95. Codec ID : S_TEXT/UTF8
  96. Codec ID/Info : UTF-8 Plain Text
  97. Duration : 1 h 54 min
  98. Bit rate : 34 b/s
  99. Count of elements : 769
  100. Stream size : 28.9 KiB (0%)
  101. Title : Finnish
  102. Language : Finnish
  103. Default : No
  104. Forced : No

  105. Text #4
  106. ID : 7
  107. Format : UTF-8
  108. Codec ID : S_TEXT/UTF8
  109. Codec ID/Info : UTF-8 Plain Text
  110. Duration : 1 h 58 min
  111. Bit rate : 52 b/s
  112. Count of elements : 1693
  113. Stream size : 45.8 KiB (0%)
  114. Title : English [SDH]
  115. Language : English
  116. Default : No
  117. Forced : No

  118. Text #5
  119. ID : 8
  120. Format : UTF-8
  121. Codec ID : S_TEXT/UTF8
  122. Codec ID/Info : UTF-8 Plain Text
  123. Duration : 1 h 54 min
  124. Bit rate : 32 b/s
  125. Count of elements : 1102
  126. Stream size : 27.6 KiB (0%)
  127. Title : European Spanish
  128. Language : Spanish
  129. Default : No
  130. Forced : No

  131. Text #6
  132. ID : 9
  133. Format : UTF-8
  134. Codec ID : S_TEXT/UTF8
  135. Codec ID/Info : UTF-8 Plain Text
  136. Duration : 1 h 53 min
  137. Bit rate : 36 b/s
  138. Count of elements : 766
  139. Stream size : 30.0 KiB (0%)
  140. Title : Dutch
  141. Language : Dutch
  142. Default : No
  143. Forced : No

  144. Text #7
  145. ID : 10
  146. Format : UTF-8
  147. Codec ID : S_TEXT/UTF8
  148. Codec ID/Info : UTF-8 Plain Text
  149. Duration : 1 h 54 min
  150. Bit rate : 38 b/s
  151. Count of elements : 1104
  152. Stream size : 32.6 KiB (0%)
  153. Title : Italian
  154. Language : Italian
  155. Default : No
  156. Forced : No

  157. Text #8
  158. ID : 11
  159. Format : UTF-8
  160. Codec ID : S_TEXT/UTF8
  161. Codec ID/Info : UTF-8 Plain Text
  162. Duration : 1 h 54 min
  163. Bit rate : 34 b/s
  164. Count of elements : 768
  165. Stream size : 29.3 KiB (0%)
  166. Title : Swedish
  167. Language : Swedish
  168. Default : No
  169. Forced : No
复制代码


宝贝智多星续集:玩转纽约(港) / 小鬼当家2:迷失纽约 / 小鬼当家2:纽约迷失记 / 独自在家2:迷失纽约/小鬼当家2 4k Home.Alone.2.Lost.in.New.York.1992.2160p.DSNP.WEB-DL.x265.10bit.HDR.DTS-HD.MA.5.1电影下载

小鬼当家2 4k Home.Alone.2.Lost.in.New.York.1992.2160p.DSNP.WEB-DL.x265.10bit.HDR.DTS-HD.MA.5.1【17.06 GB】
[Hao4k]小鬼当家2 4k Home.Alone.2.Lost.in.New.York.1992.2160p.DSNP.WEB-DL.x265.10.torrent (86.03 KB)
回复

使用道具 举报

   发表回复

您需要登录后才可以回帖 登录 | 立即注册

返回列表 本版积分规则

  • 在线客服

  • 返回顶部