微博 微信

Hao4K影音

[4k纪录视频] [国家地理伟大工程巡礼][迪拜帆船酒店][720P.HDTV][中文字幕]

2021-5-13 00:38:13 7328 0 |只看大图 回帖奖励 |倒序浏览 |阅读模式

小兔叽乖乖 帖主

2021-5-13 00:38:13

新人分享下资源。



影视珍藏\高清纪录片\[国家地理伟大工程巡礼][迪拜帆船酒店][720P.HDTV][中文字幕].rmvb
Format                         : RealMedia
File size                      : 614 MiB
Duration                       : 49 min 58 s
Overall bit rate               : 1 702 kb/s
Movie name                     : 迪拜帆船酒店1024x576版


Video
ID                             : 1
Format                         : RealVideo 4
Codec ID                       : RV40
Codec ID/Info                  : Based on AVC (H.264), Real Player 9
Duration                       : 49 min 58 s
Bit rate                       : 1 574 kb/s
Width                          : 1 024 pixels
Height                         : 576 pixels
Display aspect ratio           : 16:9
Frame rate                     : 23.976 (24000/1001) FPS
Bits/(Pixel*Frame)             : 0.111
Stream size                    : 563 MiB (92%)

Audio
ID                             : 0
Format                         : AAC LC
Format/Info                    : Advanced Audio Codec Low Complexity
Codec ID                       : raac
Codec ID/Info                  : Real Player 9
Duration                       : 49 min 58 s
Bit rate                       : 128 kb/s
Channel(s)                     : 2 channels
Sampling rate                  : 44.1 kHz
Bit depth                      : 16 bits
Compression mode               : Lossy
Stream size                    : 45.8 MiB (7%)

------------------------------------------------------------------------------------------------------
[滤镜使用列表]
  (1) Built-in Real Media Source
  (2) Built-in Video Codec/Transform
  (3) Enhanced Video Renderer(Custom Present)
  (4) Built-in Audio Codec/Transform
  (5) DirectSound Audio Renderer

[视频信息]
  视频编码: RV40 - 内置 FFmpeg 解码器(rv40)
  输入格式: RV40(12 bits)
  输入尺寸: 1024 × 576(1.78:1)
  输出格式: YUY2(16 bits)
  输出尺寸: 1024 × 576(1.78:1)
  帧率: 23
  BitRate: 1574.01 kbps

[音频信息]
  音频编码: AAC(0xaac0) - 内置 FFmpeg 解码器(aac)
  采样率: 44100 -> 44100 Hz
  位率: 16 -> 16 位
  声道数: 2 -> 2 声道
  Bitrate: 128 kbps


——————————————————————————————————————————————————————————————
链接:https://pan.baidu.com/s/1Tvc9ZOxLrprgsSeZdhMhMA
提取码:op2x



更多图片 小图 大图
组图打开中,请稍候......
回复

使用道具 举报

   发表回复

您需要登录后才可以回帖 登录 | 立即注册

返回列表 本版积分规则

:
青铜玩家
:
未填写

主题

帖子

积分93

  • 在线客服

  • 返回顶部