微博 微信

Hao4K影音

电影频道
电影封面:
片  名: 魔女游戏4K
电影分类: 科幻 恐怖 惊悚 剧情 
国  家: 美国 
年  代: 90年代
分 辨 率: 4K(3840x2160)
电影格式: MKV|REMUX 
画质标准: HDR HDR10 
音质编码: DTS-HD Master Audio 
电影声道: 5.1声道 
帧数/FPS: 23.976 帧
电影语言: 英文原版 
资源大小: 12.36 GB
导  演: 安德鲁·弗莱明
豆瓣评分: 6.3 分
中文字幕: -
剧情简介: 16岁的少女萨拉·贝利(Robin Tunney 饰)外表阳光美丽,却拥有不为人知的痛苦过去。为了寻找生活的希望,她随父亲(Cliff De Young 饰)和继母从旧金山搬到了位于洛杉矶的一座城市,并在当地一所教会学校继续学业。在这里她遇见三个打扮和举止都很怪异的女孩——(费尔鲁扎·鲍克 Fairuza Balk 饰)、邦妮(Neve Campbell 饰)和罗谢丽(Rachel True 饰)。周围的学生没有一个愿意与她们交往,甚至盛传他们就是恐怖的女巫。萨拉无意间展现出的超能力引起南希等人的注意,这四个本质上有着相同气质的女孩很快便走到一起。
  他们希望召唤万物之灵马农(Manon),让其进入自己的身体,由此可以使糟糕的生活变得好转起来。只是,世界上绝对没有免费的午餐……
着魔天使 / 同好者行会/魔女游戏 4K.The.Craft.1996.2160p.AMZN.WEB-DL.x265.10bit.HDR10Plus.DTS-HD.MA.5.1-4k电影信息
  1. Video
  2. ID : 1
  3. Format : HEVC
  4. Format/Info : High Efficiency Video Coding
  5. Format profile : Main 10@L5@Main
  6. HDR format : SMPTE ST 2094 App 4, Version 1, HDR10+ Profile B compatible
  7. Codec ID : V_MPEGH/ISO/HEVC
  8. Duration : 1 h 40 min
  9. Bit rate : 15.0 Mb/s
  10. Width : 3 840 pixels
  11. Height : 2 080 pixels
  12. Display aspect ratio : 1.85:1
  13. Frame rate mode : Constant
  14. Frame rate : 23.976 (24000/1001) FPS
  15. Color space : YUV
  16. Chroma subsampling : 4:2:0
  17. Bit depth : 10 bits
  18. Bits/(Pixel*Frame) : 0.078
  19. Stream size : 10.6 GiB (80%)
  20. Language : English
  21. Default : Yes
  22. Forced : No
  23. Color range : Limited
  24. Color primaries : BT.2020
  25. Transfer characteristics : PQ
  26. Matrix coefficients : BT.2020 non-constant
  27. Mastering display color primaries : Display P3
  28. Mastering display luminance : min: 0.0050 cd/m2, max: 4000 cd/m2
  29. Maximum Content Light Level : 3991 cd/m2
  30. Maximum Frame-Average Light Level : 664 cd/m2

  31. Audio #1
  32. ID : 2
  33. Format : DTS XLL
  34. Format/Info : Digital Theater Systems
  35. Commercial name : DTS-HD Master Audio
  36. Codec ID : A_DTS
  37. Duration : 1 h 40 min
  38. Bit rate mode : Variable
  39. Bit rate : 3 101 kb/s
  40. Channel(s) : 6 channels
  41. Channel layout : C L R Ls Rs LFE
  42. Sampling rate : 48.0 kHz
  43. Frame rate : 93.750 FPS (512 SPF)
  44. Bit depth : 24 bits
  45. Compression mode : Lossless
  46. Delay relative to video : 450 ms
  47. Stream size : 2.19 GiB (17%)
  48. Title : DTS-HD MA 5.1
  49. Language : English
  50. Default : Yes
  51. Forced : No

  52. Audio #2
  53. ID : 3
  54. Format : E-AC-3
  55. Format/Info : Enhanced AC-3
  56. Commercial name : Dolby Digital Plus
  57. Codec ID : A_EAC3
  58. Duration : 1 h 40 min
  59. Bit rate mode : Constant
  60. Bit rate : 640 kb/s
  61. Channel(s) : 6 channels
  62. Channel layout : L R C LFE Ls Rs
  63. Sampling rate : 48.0 kHz
  64. Frame rate : 31.250 FPS (1536 SPF)
  65. Compression mode : Lossy
  66. Stream size : 462 MiB (3%)
  67. Title : DDP 5.1
  68. Language : English
  69. Service kind : Complete Main
  70. Default : No
  71. Forced : No

  72. Text
  73. ID : 4
  74. Format : UTF-8
  75. Codec ID : S_TEXT/UTF8
  76. Codec ID/Info : UTF-8 Plain Text
  77. Duration : 1 h 40 min
  78. Bit rate : 58 b/s
  79. Count of elements : 1555
  80. Stream size : 43.2 KiB (0%)
  81. Title : English-SRT
  82. Language : English
  83. Default : No
  84. Forced : No

  85. Menu
  86. 00:00:00.000 : 00:00:00.000
  87. 00:09:01.207 : 00:09:01.207
  88. 00:17:29.382 : 00:17:29.382
  89. 00:26:18.076 : 00:26:18.076
  90. 00:35:03.685 : 00:35:03.685
  91. 00:43:15.510 : 00:43:15.510
  92. 00:51:32.756 : 00:51:32.756
  93. 00:59:23.101 : 00:59:23.101
  94. 01:06:52.467 : 01:06:52.467
  95. 01:15:36.282 : 01:15:36.282
  96. 01:22:38.954 : 01:22:38.954
  97. 01:28:32.015 : 01:28:32.015
复制代码

着魔天使 / 同好者行会/魔女游戏 4K.The.Craft.1996.2160p.AMZN.WEB-DL.x265.10bit.HDR10Plus.DTS-HD.MA.5.1-4K电影下载
魔女游戏4K.The.Craft.1996.2160p.AMZN.WEB-DL.x265.10bit.HDR10Plus.DTS-HD.MA.5.1【4K HDR 13.20 GB】
[Hao4K]魔女游戏4K.The.Craft.1996.2160p.AMZN.WEB-DL.x265.10bit.HDR10Plus.DTS-HD.M.torrent (66.68 KB)
回复

使用道具 举报

全部回复15

dragon_walk 发表于 2021-5-13 11:01:45

dragon_walk 2

2021-5-13 11:01:45

免费资源,香
回复 支持 反对

使用道具 举报

aftok123 发表于 2021-5-13 11:22:58

aftok123 3

2021-5-13 11:22:58


免费资源 赶快下
回复 支持 反对

使用道具 举报

yangly 发表于 2021-5-13 11:27:13

yangly 4

2021-5-13 11:27:13

感谢分享
回复 支持 反对

使用道具 举报

cardinlai 发表于 2021-5-13 18:29:50

cardinlai 5

2021-5-13 18:29:50

感谢分享
回复 支持 反对

使用道具 举报

以酒会友 发表于 2021-5-13 20:23:36

以酒会友 6

2021-5-13 20:23:36

感谢分享 !
回复 支持 反对

使用道具 举报

拳霸-霸王丸 发表于 2021-5-13 20:40:24

拳霸-霸王丸 7

2021-5-13 20:40:24

感谢分享
回复 支持 反对

使用道具 举报

xpon 发表于 2021-5-13 21:53:07

xpon 8

2021-5-13 21:53:07


学习了 楼主真棒
回复 支持 反对

使用道具 举报

kltan9988 发表于 2021-5-13 22:37:44

kltan9988 9

2021-5-13 22:37:44

感谢分享
回复 支持 反对

使用道具 举报

亿万粉丝 发表于 2021-5-14 08:46:04

亿万粉丝 10

2021-5-14 08:46:04

免费资源好棒!!!
回复 支持 反对

使用道具 举报

panbell 发表于 2021-5-14 11:28:58

panbell 11

2021-5-14 11:28:58

谢谢分享
回复 支持 反对

使用道具 举报

小兔叽乖乖 发表于 2021-5-14 14:58:26

小兔叽乖乖 12

2021-5-14 14:58:26

这些资源呐,喜欢可我没设备啊~~
回复 支持 反对

使用道具 举报

lianxi68 发表于 2021-5-16 12:57:31

lianxi68 13

2021-5-16 12:57:31

谢谢分享。
回复 支持 反对

使用道具 举报

aftok123 发表于 2021-5-18 18:11:23

aftok123 14

2021-5-18 18:11:23

字幕我要字幕
回复 支持 反对

使用道具 举报

世爵39 发表于 2021-5-25 14:41:48

世爵39 15

2021-5-25 14:41:48

20多年又有机会下载重温此影片
回复 支持 反对

使用道具 举报

jionch 发表于 2021-5-25 20:09:39

jionch 16

2021-5-25 20:09:39


谢谢分享
回复 支持 反对

使用道具 举报

   发表回复

您需要登录后才可以回帖 登录 | 立即注册

返回列表 本版积分规则

  • 在线客服

  • 返回顶部