微博 微信

Hao4K影音

[英剧] 使女的故事 第四季4k The.Handmaids.Tale.S04E01.REPACK.2160p.美剧下载

2021-5-14 14:06:32 20933 1 |只看大图 回帖奖励 |倒序浏览 |阅读模式

大红色 帖主

2021-5-13 16:19:54

电视剧频道
电视剧封面:
电视剧名: 使女的故事 第四季4k
年  代: 2021  
国  家: 美国
类  别: 科幻 惊悚 剧情 
语  言: 英语
字  幕: 英文原版
上映日期: 2021-04-28
文件格式: mkv    
视频效果: 4K(3840x2160)    
资源大小: 6.21 GB
片  长: -
导  演: 伊丽莎白·莫斯 / 科林·沃特金森 / 克里斯蒂娜·秋
剧情简介:  在逃亡中,受伤的琼和逃亡的女仆们在一个农场找到了避难所。在基列,被监禁的劳伦斯试图避免死刑。莉迪亚阿姨对86名在“天使之旅”中遇难的孩子感到震惊。
使女的故事 第四季4k The.Handmaids.Tale.S04E01.REPACK.2160p.HULU.WEBRip.DDP5.1.x265美剧信息
  1. Video
  2. ID : 1
  3. Format : HEVC
  4. Format/Info : High Efficiency Video Coding
  5. Format profile : Main 10@L5.1@Main
  6. Codec ID : V_MPEGH/ISO/HEVC
  7. Duration : 57 min 33 s
  8. Bit rate : 15.2 Mb/s
  9. Width : 3 840 pixels
  10. Height : 2 160 pixels
  11. Display aspect ratio : 16:9
  12. Frame rate mode : Constant
  13. Frame rate : 23.976 (24000/1001) FPS
  14. Color space : YUV
  15. Chroma subsampling : 4:2:0
  16. Bit depth : 10 bits
  17. Bits/(Pixel*Frame) : 0.076
  18. Stream size : 6.11 GiB (98%)
  19. Default : Yes
  20. Forced : No

  21. Audio
  22. ID : 2
  23. Format : E-AC-3
  24. Format/Info : Enhanced AC-3
  25. Commercial name : Dolby Digital Plus
  26. Codec ID : A_EAC3
  27. Duration : 57 min 33 s
  28. Bit rate mode : Constant
  29. Bit rate : 256 kb/s
  30. Channel(s) : 6 channels
  31. Channel layout : L R C LFE Ls Rs
  32. Sampling rate : 48.0 kHz
  33. Frame rate : 31.250 FPS (1536 SPF)
  34. Compression mode : Lossy
  35. Stream size : 105 MiB (2%)
  36. Language : English
  37. Service kind : Complete Main
  38. Default : Yes
  39. Forced : No

  40. Text #1
  41. ID : 3
  42. Format : UTF-8
  43. Codec ID : S_TEXT/UTF8
  44. Codec ID/Info : UTF-8 Plain Text
  45. Duration : 57 min 22 s
  46. Bit rate : 44 b/s
  47. Count of elements : 686
  48. Stream size : 18.9 KiB (0%)
  49. Language : English
  50. Default : No
  51. Forced : No

  52. Text #2
  53. ID : 4
  54. Format : UTF-8
  55. Codec ID : S_TEXT/UTF8
  56. Codec ID/Info : UTF-8 Plain Text
  57. Duration : 57 min 22 s
  58. Bit rate : 53 b/s
  59. Count of elements : 825
  60. Stream size : 22.6 KiB (0%)
  61. Title : SDH
  62. Language : English
  63. Default : No
  64. Forced : No

  65. Text #3
  66. ID : 5
  67. Format : UTF-8
  68. Codec ID : S_TEXT/UTF8
  69. Codec ID/Info : UTF-8 Plain Text
  70. Duration : 57 min 22 s
  71. Bit rate : 45 b/s
  72. Count of elements : 687
  73. Stream size : 19.1 KiB (0%)
  74. Language : Spanish
  75. Default : No
  76. Forced : No

  77. Text #4
  78. ID : 6
  79. Format : UTF-8
  80. Codec ID : S_TEXT/UTF8
  81. Codec ID/Info : UTF-8 Plain Text
  82. Duration : 57 min 22 s
  83. Bit rate : 56 b/s
  84. Count of elements : 825
  85. Stream size : 23.6 KiB (0%)
  86. Title : SDH
  87. Language : Spanish
  88. Default : No
  89. Forced : No

  90. Menu
  91. 00:17:49.011 : en:Chapter 01
  92. 00:26:30.009 : en:Chapter 02
  93. 00:30:43.009 : en:Chapter 03
  94. 00:41:52.014 : en:Chapter 04
复制代码


使女的故事 第四季4k The.Handmaids.Tale.S04E01.REPACK.2160p.HULU.WEBRip.DDP5.1.x265美剧下载

使女的故事 第四季4k The.Handmaids.Tale.S04E01.REPACK.2160p.HULU.WEBRip.DDP5.1.x265【6.21 GB】
[Hao4k]使女的故事 第四季4k The.Handmaids.Tale.S04E01.REPACK.2160p.HULU.WEBRip.DD.torrent (31.75 KB)
回复

使用道具 举报

全部回复1

lijian1000 发表于 2021-5-14 14:06:32

lijian1000 2

2021-5-14 14:06:32

好看吗?
回复 支持 反对

使用道具 举报

   发表回复

您需要登录后才可以回帖 登录 | 立即注册

返回列表 本版积分规则

:
白银玩家
:
未填写

主题

帖子

积分1149

  • 在线客服

  • 返回顶部