微博 微信

Hao4K影音

[美剧] 间谍之城4k Spy.City.S01.2160p.美剧下载

4 天前 31458 10 |只看大图 回帖奖励 |倒序浏览 |阅读模式

大红色 帖主

2021-5-14 11:49:40

电视剧频道
电视剧封面:
电视剧名: 间谍之城4k
年  代: 2020  
国  家: 美国
类  别: 惊悚 剧情 
语  言: 英语
字  幕: -
上映日期: 2021-04-15
文件格式: mkv    
视频效果: 4K(3840x2160)    
资源大小: 31.00 GB
片  长: -
导  演: 米格尔·亚历山大
剧情简介: Dominic Cooper将主演间谍题材的新剧#Spy City##间谍之城#,英国作家威廉·博伊德(William Boyd)将负责撰写剧本。
  该剧设定在1961年,柏林墙建立前夕。Cooper将饰演一名英国间谍,被派往柏林,目的是查出英国大使馆或盟国中的一名叛徒。当时的柏林被认为是最危险的地方之一,到处都是间谍或双面特工。
间谍之城4k Spy.City.S01.2160p.WEBRip.DDP5.1.x265美剧信息
  1. Video
  2. ID : 1
  3. Format : HEVC
  4. Format/Info : High Efficiency Video Coding
  5. Format profile : Main 10@L5@High
  6. Codec ID : V_MPEGH/ISO/HEVC
  7. Duration : 47 min 52 s
  8. Bit rate : 15.3 Mb/s
  9. Width : 3 840 pixels
  10. Height : 2 160 pixels
  11. Display aspect ratio : 16:9
  12. Frame rate mode : Constant
  13. Frame rate : 25.000 FPS
  14. Color space : YUV
  15. Chroma subsampling : 4:2:0
  16. Bit depth : 10 bits
  17. Bits/(Pixel*Frame) : 0.074
  18. Stream size : 5.11 GiB (97%)
  19. Writing library : x265 0.0:[Windows][MSVC 1800][64 bit] 10bit
  20. Encoding settings : wpp / ctu=64 / min-cu-size=8 / max-tu-size=32 / tu-intra-depth=1 / tu-inter-depth=1 / me=1 / subme=2 / merange=57 / no-rect / no-amp / max-merge=2 / temporal-mvp / no-early-skip / rskip / rdpenalty=0 / no-tskip / no-tskip-fast / strong-intra-smoothing / no-lossless / no-cu-lossless / no-constrained-intra / no-fast-intra / no-open-gop / no-temporal-layers / interlace=0 / keyint=50 / min-keyint=5 / scenecut=0 / rc-lookahead=20 / lookahead-slices=8 / bframes=3 / bframe-bias=0 / b-adapt=2 / ref=4 / limit-refs=3 / no-limit-modes / weightp / no-weightb / aq-mode=2 / qg-size=32 / aq-strength=1.00 / cbqpoffs=0 / crqpoffs=0 / rd=3 / psy-rd=0.00 / rdoq-level=0 / psy-rdoq=0.00 / no-rd-refine / signhide / deblock=0:0 / sao / no-sao-non-deblock / b-pyramid / cutree / no-intra-refresh / rc=cbr / bitrate=16000 / qcomp=0.60 / qpmin=0 / qpmax=51 / qpstep=4 / vbv-maxrate=16000 / vbv-bufsize=32000 / ipratio=1.40 / pbratio=1.30
  21. Language : German
  22. Default : Yes
  23. Forced : No
  24. Color range : Limited
  25. Color primaries : BT.709
  26. Transfer characteristics : BT.709
  27. Matrix coefficients : BT.709

  28. Audio
  29. ID : 2
  30. Format : E-AC-3
  31. Format/Info : Enhanced AC-3
  32. Commercial name : Dolby Digital Plus
  33. Codec ID : A_EAC3
  34. Duration : 47 min 52 s
  35. Bit rate mode : Constant
  36. Bit rate : 224 kb/s
  37. Channel(s) : 6 channels
  38. Channel layout : L R C LFE Ls Rs
  39. Sampling rate : 48.0 kHz
  40. Frame rate : 31.250 FPS (1536 SPF)
  41. Compression mode : Lossy
  42. Stream size : 76.7 MiB (1%)
  43. Language : English
  44. Service kind : Complete Main
  45. Default : Yes
  46. Forced : No

  47. Text #1
  48. ID : 3
  49. Format : UTF-8
  50. Codec ID : S_TEXT/UTF8
  51. Codec ID/Info : UTF-8 Plain Text
  52. Title : English
  53. Language : English
  54. Default : No
  55. Forced : No

  56. Text #2
  57. ID : 4
  58. Format : UTF-8
  59. Codec ID : S_TEXT/UTF8
  60. Codec ID/Info : UTF-8 Plain Text
  61. Title : German
  62. Language : German
  63. Default : No
  64. Forced : No
复制代码


间谍之城4k Spy.City.S01.2160p.WEBRip.DDP5.1.x265美剧下载

间谍之城4k Spy.City.S01.2160p.WEBRip.DDP5.1.x265【31.00 GB】
[Hao4k]间谍之城4k Spy.City.S01.2160p.WEBRip.DDP5.1.x265-GLHF.torrent (78.46 KB)
回复

使用道具 举报

全部回复10

czzlx 发表于 2021-5-14 12:04:13

czzlx 2

2021-5-14 12:04:13

有中文字幕吗?
回复 支持 反对

使用道具 举报

snowman1983 发表于 2021-5-14 22:16:02

snowman1983 3

2021-5-14 22:16:02

没找到合适的字幕呀
回复 支持 反对

使用道具 举报

ttdwht 发表于 2021-5-15 08:57:09

ttdwht 4

2021-5-15 08:57:09

谢谢分享
回复 支持 反对

使用道具 举报

h2325124 发表于 2021-5-21 20:17:33

h2325124 5

2021-5-21 20:17:33

霍华德史塔克
回复 支持 反对

使用道具 举报

iris6267 发表于 2021-5-23 08:10:34

iris6267 6

2021-5-23 08:10:34

谢谢分享
回复 支持 反对

使用道具 举报

Jj8811 发表于 2021-5-24 15:43:45

Jj8811 7

2021-5-24 15:43:45

谢谢发布好片
回复 支持 反对

使用道具 举报

t618ghf 发表于 2021-5-25 10:08:00

t618ghf 8

2021-5-25 10:08:00

跪求字幕,谢谢!
回复 支持 反对

使用道具 举报

福星高高照 发表于 2021-6-11 12:55:47

福星高高照 9

2021-6-11 12:55:47

网上又字幕了,好片源,谢谢
回复 支持 反对

使用道具 举报

t618ghf 发表于 2021-6-12 09:33:45

t618ghf 10

2021-6-12 09:33:45

没有合适的字幕,跪求高人!
回复 支持 反对

使用道具 举报

宝矿力 发表于 4 天前

宝矿力 11

4 天前

这个戏真不知道,现在知道了,感谢楼主!!!
回复 支持 反对

使用道具 举报

   发表回复

您需要登录后才可以回帖 登录 | 立即注册

返回列表 本版积分规则

:
白银玩家
:
未填写

主题

帖子

积分1167

  • 在线客服

  • 返回顶部