微博 微信

Hao4K影音

[美剧] 尝试 第一季4k Trying.S01.2160p.美剧下载

2021-5-16 13:58:37 10381 1 |只看大图 回帖奖励 |倒序浏览 |阅读模式

大红色 帖主

2021-5-14 11:56:11

电视剧频道
电视剧封面:
电视剧名: 尝试 第一季4k
年  代: 2020  
国  家: 美国
类  别: 喜剧 
语  言: 英语
字  幕: 英文原版
上映日期: 2020-05-01
文件格式: mkv    
视频效果: 4K(3840x2160)    
资源大小: 40.22 GB
片  长: 28 分钟
导  演: 吉姆·奥汉龙
剧情简介: 爱夫妇二人在遭遇孩子危机之后,决定领养。
而立人生(台) / 家·多点尝试 / Alabama/尝试 第一季4k Trying.S01.2160p.ATVP.WEB-DL.DDP5.1.Atmos.DV.x265美剧信息
  1. Video
  2. ID : 1
  3. Format : HEVC
  4. Format/Info : High Efficiency Video Coding
  5. Format profile : Main 10@L5@High
  6. HDR format : Dolby Vision, Version 1.0, dvhe.05.06, BL+RPU
  7. Codec ID : dvhe
  8. Codec ID/Info : High Efficiency Video Coding with Dolby Vision
  9. Duration : 28 min 44 s
  10. Bit rate : 24.4 Mb/s
  11. Width : 3 840 pixels
  12. Height : 1 920 pixels
  13. Original height : 1 916 pixels
  14. Display aspect ratio : 2.000
  15. Original display aspect ratio : 2.004
  16. Frame rate mode : Constant
  17. Frame rate : 23.976 (23976/1000) FPS
  18. Color space : YUV
  19. Chroma subsampling : 4:2:0
  20. Bit depth : 10 bits
  21. Bits/(Pixel*Frame) : 0.138
  22. Stream size : 4.90 GiB (97%)
  23. Default : Yes
  24. Alternate group : 1
  25. Codec configuration box : hvcC+dvcC

  26. Audio
  27. ID : 2
  28. Format : E-AC-3 JOC
  29. Format/Info : Enhanced AC-3 with Joint Object Coding
  30. Commercial name : Dolby Digital Plus with Dolby Atmos
  31. Codec ID : ec-3
  32. Duration : 28 min 44 s
  33. Bit rate mode : Constant
  34. Bit rate : 768 kb/s
  35. Maximum bit rate : 811 kb/s
  36. Channel(s) : 6 channels
  37. Channel layout : L R C LFE Ls Rs
  38. Sampling rate : 48.0 kHz
  39. Frame rate : 31.250 FPS (1536 SPF)
  40. Compression mode : Lossy
  41. Stream size : 158 MiB (3%)
  42. Language : English
  43. Service kind : Complete Main
  44. Default : Yes
  45. Alternate group : 2
  46. Complexity index : Not present / 16
  47. Number of dynamic objects : 15
  48. Bed channel count : 1 channel
  49. Bed channel configuration : LFE

  50. Text #1
  51. ID : 3
  52. Format : Timed Text
  53. Codec ID : tx3g
  54. Duration : 28 min 39 s
  55. Bit rate mode : Variable
  56. Bit rate : 82 b/s
  57. Stream size : 17.2 KiB (0%)
  58. Title : Svenska
  59. Language : Swedish
  60. Forced : No

  61. Text #2
  62. ID : 4
  63. Format : Timed Text
  64. Codec ID : tx3g
  65. Duration : 28 min 39 s
  66. Bit rate mode : Variable
  67. Bit rate : 78 b/s
  68. Stream size : 16.4 KiB (0%)
  69. Title : Dansk
  70. Language : Danish
  71. Forced : No

  72. Text #3
  73. ID : 5
  74. Format : Timed Text
  75. Codec ID : tx3g
  76. Duration : 27 min 49 s
  77. Bit rate mode : Variable
  78. Bit rate : 77 b/s
  79. Stream size : 15.7 KiB (0%)
  80. Title : German
  81. Language : German
  82. Forced : No

  83. Text #4
  84. ID : 6
  85. Format : Timed Text
  86. Codec ID : tx3g
  87. Duration : 27 min 8 s
  88. Bit rate mode : Variable
  89. Bit rate : 98 b/s
  90. Stream size : 19.5 KiB (0%)
  91. Title : English (SDH)
  92. Language : English
  93. Forced : No

  94. Text #5
  95. ID : 7
  96. Format : Timed Text
  97. Codec ID : tx3g
  98. Duration : 28 min 39 s
  99. Bit rate mode : Variable
  100. Bit rate : 85 b/s
  101. Stream size : 17.8 KiB (0%)
  102. Title : Español (Latinoamericano)
  103. Language : Spanish
  104. Forced : No

  105. Text #6
  106. ID : 8
  107. Format : Timed Text
  108. Codec ID : tx3g
  109. Duration : 28 min 42 s
  110. Bit rate mode : Variable
  111. Bit rate : 85 b/s
  112. Stream size : 18.0 KiB (0%)
  113. Title : Español
  114. Language : Spanish
  115. Forced : No

  116. Text #7
  117. ID : 9
  118. Format : Timed Text
  119. Codec ID : tx3g
  120. Duration : 28 min 39 s
  121. Bit rate mode : Variable
  122. Bit rate : 70 b/s
  123. Stream size : 14.7 KiB (0%)
  124. Title : Suomi
  125. Language : Finnish
  126. Forced : No

  127. Text #8
  128. ID : 10
  129. Format : Timed Text
  130. Codec ID : tx3g
  131. Duration : 28 min 7 s
  132. Bit rate mode : Variable
  133. Bit rate : 69 b/s
  134. Stream size : 14.3 KiB (0%)
  135. Title : Français (Canadien)
  136. Language : French
  137. Forced : No

  138. Text #9
  139. ID : 11
  140. Format : Timed Text
  141. Codec ID : tx3g
  142. Duration : 28 min 7 s
  143. Bit rate mode : Variable
  144. Bit rate : 69 b/s
  145. Stream size : 14.3 KiB (0%)
  146. Title : Français
  147. Language : French
  148. Forced : No

  149. Text #10
  150. ID : 12
  151. Format : Timed Text
  152. Codec ID : tx3g
  153. Duration : 28 min 39 s
  154. Bit rate mode : Variable
  155. Bit rate : 75 b/s
  156. Stream size : 15.7 KiB (0%)
  157. Title : Nederlands
  158. Language : Dutch
  159. Forced : No

  160. Text #11
  161. ID : 13
  162. Format : Timed Text
  163. Codec ID : tx3g
  164. Duration : 28 min 39 s
  165. Bit rate mode : Variable
  166. Bit rate : 81 b/s
  167. Stream size : 17.1 KiB (0%)
  168. Title : Norsk
  169. Language : Norwegian
  170. Forced : No

  171. Text #12
  172. ID : 14
  173. Format : Timed Text
  174. Codec ID : tx3g
  175. Duration : 28 min 39 s
  176. Bit rate mode : Variable
  177. Bit rate : 75 b/s
  178. Stream size : 15.7 KiB (0%)
  179. Title : Português (Brasil)
  180. Language : Portuguese
  181. Forced : No

  182. Text #13
  183. ID : 15
  184. Format : Timed Text
  185. Codec ID : tx3g
  186. Duration : 28 min 39 s
  187. Bit rate mode : Variable
  188. Bit rate : 80 b/s
  189. Stream size : 16.8 KiB (0%)
  190. Title : Português
  191. Language : Portuguese
  192. Forced : No
复制代码

而立人生(台) / 家·多点尝试 / Alabama/尝试 第一季4k Trying.S01.2160p.ATVP.WEB-DL.DDP5.1.Atmos.DV.x265美剧下载

尝试 第一季4k Trying.S01.2160p.ATVP.WEB-DL.DDP5.1.Atmos.DV.x265【40.22GB】
[Hao4k]尝试 第一季4k Trying.S01.2160p.ATVP.WEB-DL.DDP5.1.Atmos.DV.x265-ACE.torrent (102 KB)
回复

使用道具 举报

全部回复1

Louxxxx 发表于 2021-5-16 13:58:37

Louxxxx 2

2021-5-16 13:58:37


谢谢分享。
回复 支持 反对

使用道具 举报

   发表回复

您需要登录后才可以回帖 登录 | 立即注册

返回列表 本版积分规则

:
白银玩家
:
未填写

主题

帖子

积分1149

  • 在线客服

  • 返回顶部