微博 微信

Hao4K影音

[美剧] 直言真相 第一季4k Truth.Be.Told.S01.2160p.美剧下载

2021-5-14 12:37:51 15316 0 |只看大图 回帖奖励 |倒序浏览 |阅读模式

大红色 帖主

2021-5-14 12:37:51

电视剧频道
电视剧封面:
电视剧名: 直言真相 第一季4k
年  代: 2019  
国  家: 美国
类  别: 犯罪 惊悚 剧情 
语  言: 英语
字  幕: 英文原版
上映日期: 2019-12-06
文件格式: mkv    
视频效果: 4K(3840x2160)    
资源大小: 62.53 GB
片  长: 40 分钟
导  演: 莎拉·皮亚·安德森 / 米凯尔·诺加德 / 塔克·盖茨 / 洛尼·佩里斯特里 / 明基·斯皮罗
剧情简介: 欢迎走进iTunes大热真实罪案播客的台前幕后。
  19年前关于伯曼入室谋杀案的两篇调查报道,让时任《纽约时报》记者波碧·帕内尔(屋大维娅·斯宾塞 饰)声名大噪。现如今面对受害人女儿证词受人教导的新证据,主持热门真实罪案播客的她良心难泯决定重启调查——当年17岁入狱服刑至今的沃伦·凯夫(亚伦·保罗 饰)到底是否真如其母所说的那样清白无辜蒙冤受过?
真相大白(港) / 你在睡觉吗? / 你睡着了吗 / Are You Sleeping/直言真相 第一季4k Truth.Be.Told.S01.2160p.ATVP.WEB-DL.DDP5.1.Atmos.DV.x265美剧信息
  1. Video
  2. ID : 1
  3. Format : HEVC
  4. Format/Info : High Efficiency Video Coding
  5. Format profile : Main 10@L5@High
  6. HDR format : Dolby Vision, Version 1.0, dvhe.05.06, BL+RPU
  7. Codec ID : dvhe
  8. Codec ID/Info : High Efficiency Video Coding with Dolby Vision
  9. Duration : 45 min 39 s
  10. Bit rate : 24.4 Mb/s
  11. Width : 3 840 pixels
  12. Height : 1 768 pixels
  13. Display aspect ratio : 2.2:1
  14. Frame rate mode : Constant
  15. Frame rate : 23.976 (24000/1001) FPS
  16. Color space : YUV
  17. Chroma subsampling : 4:2:0
  18. Bit depth : 10 bits
  19. Bits/(Pixel*Frame) : 0.150
  20. Stream size : 7.78 GiB (97%)
  21. Default : Yes
  22. Alternate group : 1
  23. Codec configuration box : hvcC+dvcC

  24. Audio
  25. ID : 2
  26. Format : E-AC-3 JOC
  27. Format/Info : Enhanced AC-3 with Joint Object Coding
  28. Commercial name : Dolby Digital Plus with Dolby Atmos
  29. Codec ID : ec-3
  30. Duration : 45 min 39 s
  31. Bit rate mode : Constant
  32. Bit rate : 768 kb/s
  33. Maximum bit rate : 811 kb/s
  34. Channel(s) : 6 channels
  35. Channel layout : L R C LFE Ls Rs
  36. Sampling rate : 48.0 kHz
  37. Frame rate : 31.250 FPS (1536 SPF)
  38. Compression mode : Lossy
  39. Stream size : 251 MiB (3%)
  40. Language : English
  41. Service kind : Complete Main
  42. Default : Yes
  43. Alternate group : 2
  44. Complexity index : Not present / 16
  45. Number of dynamic objects : 15
  46. Bed channel count : 1 channel
  47. Bed channel configuration : LFE

  48. Text #1
  49. ID : 3
  50. Format : Timed Text
  51. Codec ID : tx3g
  52. Duration : 45 min 38 s
  53. Bit rate mode : Variable
  54. Bit rate : 82 b/s
  55. Stream size : 27.2 KiB (0%)
  56. Title : Dansk
  57. Language : Danish
  58. Forced : No

  59. Text #2
  60. ID : 4
  61. Format : Timed Text
  62. Codec ID : tx3g
  63. Duration : 45 min 31 s
  64. Bit rate mode : Variable
  65. Bit rate : 80 b/s
  66. Stream size : 26.7 KiB (0%)
  67. Title : German
  68. Language : German
  69. Forced : No

  70. Text #3
  71. ID : 5
  72. Format : Timed Text
  73. Codec ID : tx3g
  74. Duration : 45 min 38 s
  75. Bit rate mode : Variable
  76. Bit rate : 85 b/s
  77. Stream size : 28.4 KiB (0%)
  78. Title : Español (Latinoamericano)
  79. Language : Spanish
  80. Forced : No

  81. Text #4
  82. ID : 6
  83. Format : Timed Text
  84. Codec ID : tx3g
  85. Duration : 45 min 33 s
  86. Bit rate mode : Variable
  87. Bit rate : 84 b/s
  88. Stream size : 28.2 KiB (0%)
  89. Title : Español
  90. Language : Spanish
  91. Forced : No

  92. Text #5
  93. ID : 7
  94. Format : Timed Text
  95. Codec ID : tx3g
  96. Duration : 45 min 38 s
  97. Bit rate mode : Variable
  98. Bit rate : 76 b/s
  99. Stream size : 25.5 KiB (0%)
  100. Title : Suomi
  101. Language : Finnish
  102. Forced : No

  103. Text #6
  104. ID : 8
  105. Format : Timed Text
  106. Codec ID : tx3g
  107. Duration : 43 min 45 s
  108. Bit rate mode : Variable
  109. Bit rate : 81 b/s
  110. Stream size : 25.9 KiB (0%)
  111. Title : Français
  112. Language : French
  113. Forced : No

  114. Text #7
  115. ID : 9
  116. Format : Timed Text
  117. Codec ID : tx3g
  118. Duration : 45 min 38 s
  119. Bit rate mode : Variable
  120. Bit rate : 77 b/s
  121. Stream size : 25.9 KiB (0%)
  122. Title : Italiano
  123. Language : Italian
  124. Forced : No

  125. Text #8
  126. ID : 10
  127. Format : Timed Text
  128. Codec ID : tx3g
  129. Duration : 45 min 38 s
  130. Bit rate mode : Variable
  131. Bit rate : 64 b/s
  132. Stream size : 21.3 KiB (0%)
  133. Title : Nederlands
  134. Language : Dutch
  135. Forced : No

  136. Text #9
  137. ID : 11
  138. Format : Timed Text
  139. Codec ID : tx3g
  140. Duration : 45 min 38 s
  141. Bit rate mode : Variable
  142. Bit rate : 81 b/s
  143. Stream size : 27.2 KiB (0%)
  144. Title : Norsk
  145. Language : Norwegian
  146. Forced : No

  147. Text #10
  148. ID : 12
  149. Format : Timed Text
  150. Codec ID : tx3g
  151. Duration : 45 min 38 s
  152. Bit rate mode : Variable
  153. Bit rate : 76 b/s
  154. Stream size : 25.4 KiB (0%)
  155. Title : Português (Brasil)
  156. Language : Portuguese
  157. Forced : No

  158. Text #11
  159. ID : 13
  160. Format : Timed Text
  161. Codec ID : tx3g
  162. Duration : 45 min 38 s
  163. Bit rate mode : Variable
  164. Bit rate : 84 b/s
  165. Stream size : 28.1 KiB (0%)
  166. Title : Português
  167. Language : Portuguese
  168. Forced : No

  169. Text #12
  170. ID : 14
  171. Format : Timed Text
  172. Codec ID : tx3g
  173. Duration : 45 min 38 s
  174. Bit rate mode : Variable
  175. Bit rate : 83 b/s
  176. Stream size : 27.6 KiB (0%)
  177. Title : Svenska
  178. Language : Swedish
  179. Forced : No

  180. Text #13
  181. ID : 15
  182. Format : Timed Text
  183. Codec ID : tx3g
  184. Duration : 43 min 37 s
  185. Bit rate mode : Variable
  186. Bit rate : 89 b/s
  187. Stream size : 28.3 KiB (0%)
  188. Title : English (SDH)
  189. Language : English
  190. Forced : No
复制代码


真相大白(港) / 你在睡觉吗? / 你睡着了吗 / Are You Sleeping/直言真相 第一季4k Truth.Be.Told.S01.2160p.ATVP.WEB-DL.DDP5.1.Atmos.DV.x265美剧下载

直言真相 第一季4k Truth.Be.Told.S01.2160p.ATVP.WEB-DL.DDP5.1.Atmos.DV.x265【62.53 GB】
[Hao4k]直言真相 第一季4k Truth.Be.Told.S01.2160p.ATVP.WEB-DL.DDP5.1.Atmos.DV.x26.torrent (157.86 KB)
回复

使用道具 举报

   发表回复

您需要登录后才可以回帖 登录 | 立即注册

返回列表 本版积分规则

:
白银玩家
:
未填写

主题

帖子

积分1158

关闭

站内通知上一条 /1 下一条

  • 在线客服

  • 返回顶部