微博 微信

Hao4K影音

[美剧] 星球大战:残次品4K Star.Wars.The.Bad.Batch.S01E01.Aftermath.2160p.美剧下载

2021-5-22 23:07:17 179007 40 |只看大图 回帖奖励 |倒序浏览 |阅读模式

大红色 帖主

2021-5-14 13:01:51

电视剧频道
电视剧封面:
电视剧名: 星球大战:残次品4K
年  代: 2021  
国  家: 美国
类  别: 科幻 冒险 动画 
语  言: 英语
字  幕: 英文原版
上映日期: 2021-05-04
文件格式: mkv    
视频效果: 4K(3840x2160)    
资源大小: 8.28 GB
片  长: -
导  演: Jennifer Corbett / 乔治·卢卡斯
剧情简介: 讲述了“残次品”的精英和实验性克隆人在克隆人战争刚结束时,在迅速变化的银河系中寻找自己的方向。“残次品”成员是一支独特的克隆人队伍,他们在基因上与克隆人军队中的兄弟不同,每个人都拥有一种独特的特殊技能,使他们成为特殊的士兵和可怕的船员。
星球大战:异等小队/星球大战:残次品4K Star.Wars.The.Bad.Batch.S01E01.Aftermath.2160p.DSNP.WEB-DL.x265.10bit.HDR.DDP5.1美剧信息
  1. Video
  2. ID : 1
  3. Format : HEVC
  4. Format/Info : High Efficiency Video Coding
  5. Format profile : Main 10@L5@High
  6. Codec ID : V_MPEGH/ISO/HEVC
  7. Duration : 1 h 11 min
  8. Bit rate : 16.4 Mb/s
  9. Width : 3 840 pixels
  10. Height : 2 160 pixels
  11. Display aspect ratio : 16:9
  12. Frame rate mode : Constant
  13. Frame rate : 23.976 (24000/1001) FPS
  14. Color space : YUV
  15. Chroma subsampling : 4:2:0
  16. Bit depth : 10 bits
  17. Bits/(Pixel*Frame) : 0.082
  18. Stream size : 8.15 GiB (98%)
  19. Default : Yes
  20. Forced : No
  21. Color range : Limited
  22. Color primaries : BT.2020
  23. Transfer characteristics : PQ
  24. Matrix coefficients : BT.2020 non-constant

  25. Audio
  26. ID : 2
  27. Format : E-AC-3
  28. Format/Info : Enhanced AC-3
  29. Commercial name : Dolby Digital Plus
  30. Codec ID : A_EAC3
  31. Duration : 1 h 11 min
  32. Bit rate mode : Constant
  33. Bit rate : 256 kb/s
  34. Channel(s) : 6 channels
  35. Channel layout : L R C LFE Ls Rs
  36. Sampling rate : 48.0 kHz
  37. Frame rate : 31.250 FPS (1536 SPF)
  38. Compression mode : Lossy
  39. Stream size : 130 MiB (2%)
  40. Title : DDP 5.1
  41. Language : English
  42. Service kind : Complete Main
  43. Default : Yes
  44. Forced : No

  45. Text #1
  46. ID : 3
  47. Format : UTF-8
  48. Codec ID : S_TEXT/UTF8
  49. Codec ID/Info : UTF-8 Plain Text
  50. Duration : 1 h 8 min
  51. Bit rate : 51 b/s
  52. Count of elements : 816
  53. Stream size : 26.1 KiB (0%)
  54. Title : English
  55. Language : English
  56. Default : Yes
  57. Forced : No

  58. Text #2
  59. ID : 4
  60. Format : UTF-8
  61. Codec ID : S_TEXT/UTF8
  62. Codec ID/Info : UTF-8 Plain Text
  63. Duration : 1 h 9 min
  64. Bit rate : 55 b/s
  65. Count of elements : 893
  66. Stream size : 28.0 KiB (0%)
  67. Title : SDH
  68. Language : English
  69. Default : No
  70. Forced : No

  71. Text #3
  72. ID : 5
  73. Format : UTF-8
  74. Codec ID : S_TEXT/UTF8
  75. Codec ID/Info : UTF-8 Plain Text
  76. Duration : 1 h 10 min
  77. Bit rate : 50 b/s
  78. Count of elements : 791
  79. Stream size : 25.9 KiB (0%)
  80. Title : Brazilian Portuguese
  81. Language : Portuguese
  82. Default : No
  83. Forced : No

  84. Text #4
  85. ID : 6
  86. Format : UTF-8
  87. Codec ID : S_TEXT/UTF8
  88. Codec ID/Info : UTF-8 Plain Text
  89. Duration : 1 h 10 min
  90. Bit rate : 51 b/s
  91. Count of elements : 808
  92. Stream size : 26.4 KiB (0%)
  93. Title : Danish
  94. Language : Danish
  95. Default : No
  96. Forced : No

  97. Text #5
  98. ID : 7
  99. Format : UTF-8
  100. Codec ID : S_TEXT/UTF8
  101. Codec ID/Info : UTF-8 Plain Text
  102. Duration : 1 h 10 min
  103. Bit rate : 50 b/s
  104. Count of elements : 805
  105. Stream size : 25.9 KiB (0%)
  106. Title : German
  107. Language : German
  108. Default : No
  109. Forced : No

  110. Text #6
  111. ID : 8
  112. Format : UTF-8
  113. Codec ID : S_TEXT/UTF8
  114. Codec ID/Info : UTF-8 Plain Text
  115. Duration : 1 h 10 min
  116. Bit rate : 52 b/s
  117. Count of elements : 762
  118. Stream size : 27.0 KiB (0%)
  119. Title : European Spanish
  120. Language : Spanish
  121. Default : No
  122. Forced : No

  123. Text #7
  124. ID : 9
  125. Format : UTF-8
  126. Codec ID : S_TEXT/UTF8
  127. Codec ID/Info : UTF-8 Plain Text
  128. Duration : 1 h 10 min
  129. Bit rate : 46 b/s
  130. Count of elements : 804
  131. Stream size : 24.2 KiB (0%)
  132. Title : Finnish
  133. Language : Finnish
  134. Default : No
  135. Forced : No

  136. Text #8
  137. ID : 10
  138. Format : UTF-8
  139. Codec ID : S_TEXT/UTF8
  140. Codec ID/Info : UTF-8 Plain Text
  141. Duration : 1 h 10 min
  142. Bit rate : 50 b/s
  143. Count of elements : 808
  144. Stream size : 26.2 KiB (0%)
  145. Title : French
  146. Language : French
  147. Default : No
  148. Forced : No

  149. Text #9
  150. ID : 11
  151. Format : UTF-8
  152. Codec ID : S_TEXT/UTF8
  153. Codec ID/Info : UTF-8 Plain Text
  154. Duration : 1 h 10 min
  155. Bit rate : 53 b/s
  156. Count of elements : 801
  157. Stream size : 27.7 KiB (0%)
  158. Title : Italian
  159. Language : Italian
  160. Default : No
  161. Forced : No

  162. Text #10
  163. ID : 12
  164. Format : UTF-8
  165. Codec ID : S_TEXT/UTF8
  166. Codec ID/Info : UTF-8 Plain Text
  167. Duration : 1 h 10 min
  168. Bit rate : 47 b/s
  169. Count of elements : 758
  170. Stream size : 24.5 KiB (0%)
  171. Title : Dutch
  172. Language : Dutch
  173. Default : No
  174. Forced : No

  175. Text #11
  176. ID : 13
  177. Format : UTF-8
  178. Codec ID : S_TEXT/UTF8
  179. Codec ID/Info : UTF-8 Plain Text
  180. Duration : 1 h 10 min
  181. Bit rate : 49 b/s
  182. Count of elements : 809
  183. Stream size : 25.6 KiB (0%)
  184. Title : Norwegian
  185. Language : Norwegian
  186. Default : No
  187. Forced : No

  188. Text #12
  189. ID : 14
  190. Format : UTF-8
  191. Codec ID : S_TEXT/UTF8
  192. Codec ID/Info : UTF-8 Plain Text
  193. Duration : 1 h 10 min
  194. Bit rate : 48 b/s
  195. Count of elements : 811
  196. Stream size : 24.9 KiB (0%)
  197. Title : Polish
  198. Language : Polish
  199. Default : No
  200. Forced : No

  201. Text #13
  202. ID : 15
  203. Format : UTF-8
  204. Codec ID : S_TEXT/UTF8
  205. Codec ID/Info : UTF-8 Plain Text
  206. Duration : 1 h 10 min
  207. Bit rate : 52 b/s
  208. Count of elements : 803
  209. Stream size : 27.1 KiB (0%)
  210. Title : Portuguese
  211. Language : Portuguese
  212. Default : No
  213. Forced : No
复制代码


星球大战:异等小队/星球大战:残次品4K Star.Wars.The.Bad.Batch.S01E01.Aftermath.2160p.DSNP.WEB-DL.x265.10bit.HDR.DDP5.1美剧下载

星球大战:残次品4K Star.Wars.The.Bad.Batch.S01E01.Aftermath.2160p.DSNP.WEB-DL.x265.10bit.HDR.DDP5.1【8.28GB】
[Hao4K]星球大战:残次品4K Star.Wars.The.Bad.Batch.S01E01.Aftermath.2160p.DSNP.WE.torrent (42.08 KB)

评分

参与人数 1K币 +3 收起 理由
守夜人 + 3 很给力!

查看全部评分

回复

使用道具 举报

全部回复40

gummer 发表于 2021-5-21 06:31:11 Hao4K手机版

gummer 推荐

2021-5-21 06:31:11

wangtianyu3 发表于 2021-5-20 19:57
我还在等你的帖子更新呢,找不到字幕了..


第三集

Star.Wars.The.Bad.Batch.S01E03.2160p.DSNP.WEB-DL.DDP5.1.HDR.HEVC-END.ass

34.03 KB

回复 支持 3 反对 0

使用道具 举报

gummer 发表于 2021-5-22 23:47:40 Hao4K手机版

gummer 推荐

2021-5-22 23:47:40

Wil 发表于 2021-5-22 23:07
太感谢了,怎么你的帖子没啦......

我也不知道。更新第三集之后审核不通过
回复 支持 反对

使用道具 举报

39383729 发表于 2021-5-14 18:47:08

39383729 2

2021-5-14 18:47:08

感谢楼主!
回复 支持 反对

使用道具 举报

蔡恩祈 发表于 2021-5-14 19:25:46

蔡恩祈 3

2021-5-14 19:25:46

真不错,有什么区别呢?
回复 支持 反对

使用道具 举报

974246149 发表于 2021-5-14 23:52:10

974246149 4

2021-5-14 23:52:10

没有字幕  看不起看不起
回复 支持 反对

使用道具 举报

yzyssg 发表于 2021-5-15 23:03:07

yzyssg 5

2021-5-15 23:03:07

ganxielouzhu
回复 支持 反对

使用道具 举报

gummer 发表于 2021-5-16 17:42:39 Hao4K手机版

gummer 6

2021-5-16 17:42:39

怎么我的帖子就被删了?害
回复 支持 反对

使用道具 举报

泉之彼方 发表于 2021-5-16 22:41:10

泉之彼方 7

2021-5-16 22:41:10

感谢楼主啊 啊
回复 支持 反对

使用道具 举报

chuanxing2013 发表于 2021-5-17 15:39:40

chuanxing2013 8

2021-5-17 15:39:40

谢谢分享
回复 支持 反对

使用道具 举报

ttdwht 发表于 2021-5-17 18:34:12

ttdwht 9

2021-5-17 18:34:12

更新的有点慢,第3集已经出了
回复 支持 反对

使用道具 举报

zhanglaoer222 发表于 2021-5-17 23:03:17

zhanglaoer222 10

2021-5-17 23:03:17

哪有字幕呢?
回复 支持 反对

使用道具 举报

无名氏930 发表于 2021-5-18 08:46:46

无名氏930 11

2021-5-18 08:46:46

感谢分享
回复 支持 反对

使用道具 举报

ZANDERSH 发表于 2021-5-18 11:54:19

ZANDERSH 12

2021-5-18 11:54:19

卢卡斯大神必追 星战迷的最爱!希望比曼达洛人还要精彩!
回复 支持 反对

使用道具 举报

ppplll3 发表于 2021-5-20 08:12:17

ppplll3 13

2021-5-20 08:12:17

有字幕了嘛?
回复 支持 反对

使用道具 举报

wangtianyu3 发表于 2021-5-20 19:57:09

wangtianyu3 14

2021-5-20 19:57:09

gummer 发表于 2021-5-16 17:42
怎么我的帖子就被删了?害

我还在等你的帖子更新呢,找不到字幕了..
回复 支持 反对

使用道具 举报

zhanglaoer222 发表于 2021-5-22 07:58:28

zhanglaoer222 16

2021-5-22 07:58:28


请问第三集字幕在哪可以下载呢?
回复 支持 反对

使用道具 举报

gummer 发表于 2021-5-22 18:52:00 Hao4K手机版

gummer 17

2021-5-22 18:52:00

zhanglaoer222 发表于 2021-5-22 07:58
请问第三集字幕在哪可以下载呢?

更新了 上一条回复
回复 支持 反对

使用道具 举报

Wil 发表于 2021-5-22 23:07:17

Wil 18

2021-5-22 23:07:17


太感谢了,怎么你的帖子没啦......
回复 支持 反对

使用道具 举报

   发表回复

您需要登录后才可以回帖 登录 | 立即注册

返回列表 本版积分规则

:
白银玩家
:
未填写

主题

帖子

积分1158

关闭

站内通知上一条 /1 下一条

  • 在线客服

  • 返回顶部