微博 微信

Hao4K影音

电影频道
电影封面:
片  名: 那些希望我死的人4K
电影分类: 动作 犯罪 惊悚 
国  家: 美国 
年  代: 2021年
分 辨 率: 4K(3840x2160)
电影格式: MKV|REMUX 
画质标准: HDR10 
音质编码: Dolby Digital Plus Audio 
电影声道: 5.1声道 
帧数/FPS: 23.976 帧
电影语言: 英文原版 
资源大小: 12.56 GB
导  演: 泰勒·谢里丹
豆瓣评分: 6.7 分
中文字幕: /thread-57358-1-1.html
剧情简介: 一名十几岁的凶案证人发现自己在蒙大拿州的荒野中被两名刺客追杀,一名求生专家负责保护他-——而一场森林大火危及他们所有人。
灭我者(港) / 那些要我死的人(台) / 盼我死者/那些希望我死的人4K.Those.Who.Wish.Me.Dead.2021.2160p.HMAX.WEB-DL.x265.10bit.HDR.DD5.1-4k电影信息
  1. Video
  2. ID : 1
  3. Format : HEVC
  4. Format/Info : High Efficiency Video Coding
  5. Format profile : Main 10@L5@Main
  6. HDR format : SMPTE ST 2086, HDR10 compatible
  7. Codec ID : V_MPEGH/ISO/HEVC
  8. Duration : 1 h 39 min
  9. Bit rate : 17.7 Mb/s
  10. Width : 3 840 pixels
  11. Height : 2 160 pixels
  12. Display aspect ratio : 16:9
  13. Frame rate mode : Constant
  14. Frame rate : 23.976 (24000/1001) FPS
  15. Color space : YUV
  16. Chroma subsampling : 4:2:0
  17. Bit depth : 10 bits
  18. Bits/(Pixel*Frame) : 0.089
  19. Stream size : 12.3 GiB (98%)
  20. Writing library : x265 3.4hy:[Linux][GCC 7.5.0][64 bit] 10bit
  21. Encoding settings : cpuid=1111039 / frame-threads=1 / wpp / no-pmode / no-pme / no-psnr / no-ssim / log-level=2 / input-csp=1 / input-res=3840x2160 / interlace=0 / total-frames=0 / level-idc=0 / high-tier=1 / uhd-bd=0 / ref=4 / no-allow-non-conformance / repeat-headers / annexb / no-aud / no-hrd / info / hash=0 / no-temporal-layers / no-open-gop / min-keyint=96 / keyint=96 / gop-lookahead=0 / bframes=3 / b-adapt=2 / b-pyramid / bframe-bias=0 / rc-lookahead=25 / lookahead-slices=4 / scenecut=40 / hist-scenecut=0 / radl=0 / no-splice / no-intra-refresh / ctu=64 / min-cu-size=8 / rect / no-amp / max-tu-size=32 / tu-inter-depth=1 / tu-intra-depth=1 / limit-tu=0 / rdoq-level=2 / dynamic-rd=0.00 / no-ssim-rd / signhide / no-tskip / nr-intra=0 / nr-inter=0 / no-constrained-intra / strong-intra-smoothing / max-merge=3 / limit-refs=3 / limit-modes / me=3 / subme=3 / merange=57 / temporal-mvp / no-frame-dup / no-hme / weightp / no-weightb / no-analyze-src-pics / deblock=0:0 / sao / no-sao-non-deblock / rd=4 / selective-sao=4 / no-early-skip / rskip / no-fast-intra / no-tskip-fast / no-cu-lossless / no-b-intra / no-splitrd-skip / rdpenalty=0 / psy-rd=2.00 / psy-rdoq=1.00 / no-rd-refine / no-lossless / cbqpoffs=0 / crqpoffs=0 / rc=abr / bitrate=18000 / qcomp=0.60 / qpstep=4 / stats-write=0 / stats-read=2 / cplxblur=20.0 / qblur=0.5 / vbv-maxrate=24500 / vbv-bufsize=24500 / vbv-init=0.6 / vbv-end=0.6 / vbv-end-fr-adj=0.0 / ipratio=1.40 / pbratio=1.30 / aq-mode=2 / aq-strength=1.00 / cutree / zone-count=0 / no-strict-cbr / qg-size=32 / no-rc-grain / qpmax=69 / qpmin=0 / no-const-vbv / sar=0 / overscan=0 / videoformat=5 / range=0 / colorprim=9 / transfer=16 / colormatrix=9 / chromaloc=0 / display-window=0 / master-display=G(13250,34500)B(7500,3000)R(34000,16000)WP(15635,16450)L(40000000,50) / cll=555,129 / min-luma=0 / max-luma=1023 / log2-max-poc-lsb=8 / vui-timing-info / vui-hrd-info / no-concatenation / slices=1 / no-opt-qp-pps / no-opt-ref-list-length-pps / no-multi-pass-opt-rps / scenecut-bias=0.05 / hist-threshold=0.01 / no-opt-cu-delta-qp / no-aq-motion / hdr10 / no-hdr10-opt / no-dhdr10-opt / no-idr-recovery-sei / analysis-reuse-level=0 / analysis-save-reuse-level=0 / analysis-load-reuse-level=0 / scale-factor=0 / refine-intra=0 / refine-inter=0 / refine-mv=1 / refine-ctu-distortion=0 / no-limit-sao / ctu-info=0 / no-lowpass-dct / refine-analysis-type=0 / copy-pic=1 / max-ausize-factor=1.0 / no-dynamic-refine / no-single-sei / no-hevc-aq / no-svt / no-field / qp-adaptation-range=1.00 / no-scenecut-aware-qpconformance-window-offsets / right=0 / bottom=0 / decoder-max-rate=0
  22. Default : Yes
  23. Forced : No
  24. Color range : Limited
  25. Color primaries : BT.2020
  26. Transfer characteristics : PQ
  27. Matrix coefficients : BT.2020 non-constant
  28. Mastering display color primaries : Display P3
  29. Mastering display luminance : min: 0.0050 cd/m2, max: 4000 cd/m2
  30. Maximum Content Light Level : 555 cd/m2
  31. Maximum Frame-Average Light Level : 129 cd/m2

  32. Audio
  33. ID : 2
  34. Format : AC-3
  35. Format/Info : Audio Coding 3
  36. Commercial name : Dolby Digital
  37. Codec ID : A_AC3
  38. Duration : 1 h 39 min
  39. Bit rate mode : Constant
  40. Bit rate : 384 kb/s
  41. Channel(s) : 6 channels
  42. Channel layout : L R C LFE Ls Rs
  43. Sampling rate : 48.0 kHz
  44. Frame rate : 31.250 FPS (1536 SPF)
  45. Compression mode : Lossy
  46. Stream size : 274 MiB (2%)
  47. Title : DD 5.1
  48. Language : English
  49. Service kind : Complete Main
  50. Default : Yes
  51. Forced : No

  52. Text
  53. ID : 3
  54. Format : UTF-8
  55. Codec ID : S_TEXT/UTF8
  56. Codec ID/Info : UTF-8 Plain Text
  57. Duration : 1 h 35 min
  58. Bit rate : 47 b/s
  59. Count of elements : 1113
  60. Stream size : 33.4 KiB (0%)
  61. Title : English
  62. Language : English
  63. Default : No
  64. Forced : No
复制代码

灭我者(港) / 那些要我死的人(台) / 盼我死者/那些希望我死的人4K.Those.Who.Wish.Me.Dead.2021.2160p.HMAX.WEB-DL.x265.10bit.HDR.DD5.1-4K电影信息
那些希望我死的人4K.Those.Who.Wish.Me.Dead.2021.2160p.HMAX.WEB-DL.x265.10bit.HDR.DD5.1【4K HDR 12.56 GB】
[Hao4K]那些希望我死的人4K.Those.Who.Wish.Me.Dead.2021.2160p.HMAX.WEB-DL.x265.10b.torrent (63.48 KB, 售价: 2 K币)
回复

使用道具 举报

全部回复119

bbgrnnji 发表于 2021-5-14 19:10:28

bbgrnnji 2

2021-5-14 19:10:28

Angelina Jolie的片子是要看的
回复 支持 反对

使用道具 举报

kltan9988 发表于 2021-5-14 19:15:17

kltan9988 3

2021-5-14 19:15:17

谢谢分享。
回复 支持 反对

使用道具 举报

blucewee1984 发表于 2021-5-14 19:20:55

blucewee1984 4

2021-5-14 19:20:55

顶起来  今年难得的好片
回复 支持 反对

使用道具 举报

qhy888999 发表于 2021-5-14 19:33:07

qhy888999 5

2021-5-14 19:33:07

顶起来  今年难得的好片
回复 支持 反对

使用道具 举报

jonva 发表于 2021-5-14 20:00:13

jonva 6

2021-5-14 20:00:13

谢谢分享
回复 支持 反对

使用道具 举报

世爵39 发表于 2021-5-14 20:15:16

世爵39 7

2021-5-14 20:15:16

铡看过预告习,想不到这里这么快发布
回复 支持 反对

使用道具 举报

gzdqj 发表于 2021-5-14 20:34:56

gzdqj 8

2021-5-14 20:34:56

谢谢分享
回复 支持 反对

使用道具 举报

asyouwish 发表于 2021-5-14 20:38:03

asyouwish 9

2021-5-14 20:38:03

感谢!
回复 支持 反对

使用道具 举报

小兔叽乖乖 发表于 2021-5-14 21:08:33

小兔叽乖乖 10

2021-5-14 21:08:33

感谢分享如此好 的资源
回复 支持 反对

使用道具 举报

dqxa 发表于 2021-5-14 21:10:16

dqxa 11

2021-5-14 21:10:16

中文字幕??
回复 支持 反对

使用道具 举报

Jerrychen3344 发表于 2021-5-14 21:24:32

Jerrychen3344 12

2021-5-14 21:24:32

谢谢分享
回复 支持 反对

使用道具 举报

zzksjx 发表于 2021-5-14 21:38:42 Hao4K手机版

zzksjx 13

2021-5-14 21:38:42

感谢分享如此好 的资源
回复 支持 反对

使用道具 举报

kltan9988 发表于 2021-5-14 21:56:15

kltan9988 14

2021-5-14 21:56:15

有没有中文字幕下载
回复 支持 反对

使用道具 举报

harlow123 发表于 2021-5-14 22:42:16

harlow123 15

2021-5-14 22:42:16

谢谢分享
回复 支持 反对

使用道具 举报

cardinlai 发表于 2021-5-15 07:55:18

cardinlai 16

2021-5-15 07:55:18

谢谢分享
回复 支持 反对

使用道具 举报

dxquan 发表于 2021-5-15 08:35:38

dxquan 17

2021-5-15 08:35:38

新片  期待
回复 支持 反对

使用道具 举报

cb917918 发表于 2021-5-15 08:48:27

cb917918 18

2021-5-15 08:48:27

顶起来  今年难得的好片
回复 支持 反对

使用道具 举报

   发表回复

您需要登录后才可以回帖 登录 | 立即注册

返回列表 本版积分规则

关闭

站内通知上一条 /1 下一条

  • 在线客服

  • 返回顶部