微博 微信

Hao4K影音

电影频道
电影封面:
片  名: 最终幻想15:王者之剑4k
电影分类: 科幻 冒险 剧情 奇幻 动画 
国  家: 美国 日本 
年  代: 2016年
分 辨 率: 4K(3840x2160)
电影格式: MKV|REMUX M2TS|BDMV 
画质标准: HDR 
音质编码: Dolby Digital Audio 
电影声道: 5.1声道 
帧数/FPS: 23.976 帧
电影语言: 英文原版 
资源大小: 3.6 GB
导  演: 野末武志
豆瓣评分: 7.2 分
中文字幕: -
剧情简介:  影片基于2016年电子角色扮演游戏《最终幻想XV》的世界观,构成新的水晶故事子系列的一部分。本片由野末武志执导,他曾是最终幻想CGI电影《最终幻想VII 降临之子》(2005)的联合导演。《最终幻想XV》总监田畑端担任电影监制,长谷川隆任编剧,约翰·R·格雷厄姆负责作曲。
FF15 / キングスグレイブ ファイナルファンタジーXV/最终幻想15:王者之剑4k Kingsglaive Final Fantasy XV 2016 2160p HDR 5.1 x265 10bit 电影信息
  1. Video
  2. ID : 1
  3. Format : HEVC
  4. Format/Info : High Efficiency Video Coding
  5. Format profile : Main [email protected]@High
  6. Codec ID : V_MPEGH/ISO/HEVC
  7. Duration : 1 h 55 min
  8. Bit rate : 3 446 kb/s
  9. Width : 3 840 pixels
  10. Height : 1 600 pixels
  11. Display aspect ratio : 2.40:1
  12. Frame rate mode : Constant
  13. Frame rate : 23.976 (24000/1001) FPS
  14. Color space : YUV
  15. Chroma subsampling : 4:2:0
  16. Bit depth : 10 bits
  17. Bits/(Pixel*Frame) : 0.023
  18. Stream size : 2.78 GiB (76%)
  19. Writing library : x265 3.2.1+1-b5c86a64bbbe:[Windows][GCC 9.2.0][64 bit] 10bit
  20. Color range : Full
  21. Color primaries : BT.2020
  22. Transfer characteristics : PQ
  23. Matrix coefficients : BT.2020 non-constant

  24. Audio
  25. ID : 2
  26. Format : AC-3
  27. Format/Info : Audio Coding 3
  28. Commercial name : Dolby Digital
  29. Codec ID : A_AC3
  30. Duration : 1 h 55 min
  31. Bit rate mode : Constant
  32. Bit rate : 320 kb/s
  33. Channel(s) : 6 channels
  34. Channel layout : L R C LFE Ls Rs
  35. Sampling rate : 48.0 kHz
  36. Frame rate : 31.250 FPS (1536 SPF)
  37. Compression mode : Lossy
  38. Stream size : 264 MiB (7%)
  39. Title : Surround
  40. Language : English

  41. Text
  42. Language : English
  43. Language : English
  44. Language : English
  45. Language : English
  46. Language : English
  47. Language : Arabic
  48. Language : Chinese
  49. Language : Chinese
  50. Language : Chinese
  51. Language : Czech
  52. Language : Danish
  53. Language : Dutch
  54. Language : Estonian
  55. Language : Finnish
  56. Language : French
  57. Language : French
  58. Language : German
  59. Language : German
  60. Language : Greek
  61. Language : Hungarian
  62. Language : Hungarian
  63. Language : Italian
  64. Language : Italian
  65. Language : Korean
  66. Language : Latvian
  67. Language : Lithuanian
  68. Language : Norwegian
  69. Language : Polish
  70. Language : Polish
  71. Language : Portuguese
  72. Language : Portuguese
  73. Language : Romanian
  74. Language : Russian
  75. Language : Spanish
  76. Language : Spanish
  77. Language : Spanish
  78. Language : Spanish
  79. Language : Swedish
  80. Language : Thai
  81. Language : Turkish
  82. Language : Japanese
  83. Default : No
  84. Forced : No
复制代码

FF15 / キングスグレイブ ファイナルファンタジーXV/最终幻想15:王者之剑4k Kingsglaive Final Fantasy XV 2016 2160p HDR 5.1 x265 10bit 电影下载

最终幻想15:王者之剑4k Kingsglaive Final Fantasy XV 2016 2160p HDR 5.1 x265 10bit【3.6GB】
最终幻想15:王者之剑4k.txt (103 Bytes)
回复

使用道具 举报

   发表回复

您需要登录后才可以回帖 登录 | 立即注册

返回列表 本版积分规则

关闭

站内通知上一条 /1 下一条

  • 在线客服

  • 返回顶部