微博 微信

Hao4K影音

电影频道
电影封面:
片  名: 米纳里4K
电影分类: 剧情 
国  家: 美国 
年  代: 2020年
分 辨 率: 4K(3840x2160)
电影格式: MKV|REMUX 
画质标准: 其他 
音质编码: Dolby Digital Audio Dolby Digital Plus Audio 
电影声道: 其他 
帧数/FPS: 23.976 帧
电影语言: 英文原版 
资源大小: 12.8 GB
导  演: 李·以萨克·郑
豆瓣评分: 7.3 分
中文字幕: -
剧情简介:   故事发生在20世纪80年代的美国,美籍韩裔男子雅各布(史蒂文·元 Steven Yeun 饰)带着妻子莫妮卡(韩艺璃 饰)和两个孩子大卫(Alan S. Kim 饰)、安妮(Noel Cho 饰)一起从熟悉的西海岸搬到了偏僻而又陌生的阿肯色州。虽然对于丈夫的这一决定,莫妮卡的心中十分的反对,但她拗不过雅各布的坚决和顽固,只得被迫夫唱妇随。
  蛮荒之地的生活既不舒适也不有趣,在最初的新鲜感过去之后,大卫和安妮很快就开始怀念起过去的生活了。之后,孩子们的外婆也来到了他们的身边,给这个家庭带来了一丝热闹的气息。雅各布没有发现的是,当他将越来越多的时间和精力投入到开发农场这件事情上时,他和妻子之间的距离就越来越远。
梦想之地(台) / 农情家园(港) / 미나리 / 水芹菜/米纳里4K Minari.2020.iTA-KOR.WEBDL.2160p.x265电影信息
  1. Video
  2. ID : 1
  3. Format : HEVC
  4. Format/Info : High Efficiency Video Coding
  5. Format profile : Main [email protected]@Main
  6. HDR format : SMPTE ST 2094 App 4, Version 1, HDR10+ Profile B compatible
  7. Codec ID : V_MPEGH/ISO/HEVC
  8. Duration : 1 h 55 min
  9. Bit rate : 14.9 Mb/s
  10. Width : 3 840 pixels
  11. Height : 1 600 pixels
  12. Display aspect ratio : 2.40:1
  13. Frame rate mode : Constant
  14. Frame rate : 23.976 (24000/1001) FPS
  15. Color space : YUV
  16. Chroma subsampling : 4:2:0
  17. Bit depth : 10 bits
  18. Bits/(Pixel*Frame) : 0.101
  19. Stream size : 12.0 GiB (93%)
  20. Language : English
  21. Default : Yes
  22. Forced : No
  23. Color range : Limited
  24. Color primaries : BT.2020
  25. Transfer characteristics : PQ
  26. Matrix coefficients : BT.2020 non-constant
  27. Mastering display color primaries : Display P3
  28. Mastering display luminance : min: 0.0250 cd/m2, max: 20000 cd/m2
  29. Maximum Content Light Level : 2238 cd/m2
  30. Maximum Frame-Average Light Level : 236 cd/m2

  31. Audio #1
  32. ID : 2
  33. Format : AC-3
  34. Format/Info : Audio Coding 3
  35. Commercial name : Dolby Digital
  36. Codec ID : A_AC3
  37. Duration : 1 h 55 min
  38. Bit rate mode : Constant
  39. Bit rate : 448 kb/s
  40. Channel(s) : 6 channels
  41. Channel layout : L R C LFE Ls Rs
  42. Sampling rate : 48.0 kHz
  43. Frame rate : 31.250 FPS (1536 SPF)
  44. Compression mode : Lossy
  45. Delay relative to video : 25 ms
  46. Stream size : 369 MiB (3%)
  47. Language : Italian
  48. Service kind : Complete Main
  49. Default : No
  50. Forced : No

  51. Audio #2
  52. ID : 3
  53. Format : E-AC-3
  54. Format/Info : Enhanced AC-3
  55. Commercial name : Dolby Digital Plus
  56. Codec ID : A_EAC3
  57. Duration : 1 h 55 min
  58. Bit rate mode : Constant
  59. Bit rate : 640 kb/s
  60. Channel(s) : 6 channels
  61. Channel layout : L R C LFE Ls Rs
  62. Sampling rate : 48.0 kHz
  63. Frame rate : 31.250 FPS (1536 SPF)
  64. Compression mode : Lossy
  65. Stream size : 527 MiB (4%)
  66. Language : Korean
  67. Service kind : Complete Main
  68. Default : No
  69. Forced : No

  70. Text #1
  71. ID : 4
  72. Format : UTF-8
  73. Codec ID : S_TEXT/UTF8
  74. Codec ID/Info : UTF-8 Plain Text
  75. Duration : 5 min 8 s
  76. Bit rate : 2 b/s
  77. Count of elements : 3
  78. Stream size : 81.0 Bytes (0%)
  79. Title : FORCED
  80. Language : Italian
  81. Default : Yes
  82. Forced : No

  83. Text #2
  84. ID : 5
  85. Format : UTF-8
  86. Codec ID : S_TEXT/UTF8
  87. Codec ID/Info : UTF-8 Plain Text
  88. Duration : 1 h 48 min
  89. Bit rate : 39 b/s
  90. Count of elements : 1344
  91. Stream size : 31.3 KiB (0%)
  92. Title : REGOLARI
  93. Language : Italian
  94. Default : No
  95. Forced : No

  96. Text #3
  97. ID : 6
  98. Format : UTF-8
  99. Codec ID : S_TEXT/UTF8
  100. Codec ID/Info : UTF-8 Plain Text
  101. Duration : 1 h 54 min
  102. Bit rate : 26 b/s
  103. Count of elements : 948
  104. Stream size : 22.0 KiB (0%)
  105. Title : SDH
  106. Language : English
  107. Default : No
  108. Forced : No

  109. Menu
  110. 00:00:00.000 : Scene 1
  111. 00:00:08.000 : Scene 2
  112. 00:00:35.000 : Title Sequence
  113. 00:00:40.000 : Scene 4
  114. 00:08:10.000 : Scene 5
  115. 00:16:09.000 : Scene 6
  116. 00:23:12.000 : Scene 7
  117. 00:31:11.000 : Scene 8
  118. 00:37:58.000 : Scene 9
  119. 00:46:18.000 : Scene 10
  120. 00:54:08.000 : Scene 11
  121. 01:00:06.000 : Scene 12
  122. 01:07:18.000 : Scene 13
  123. 01:15:12.000 : Scene 14
  124. 01:22:14.000 : Scene 15
  125. 01:29:12.000 : Scene 16
  126. 01:36:58.000 : Scene 17
  127. 01:42:09.000 : Scene 18
  128. 01:51:35.000 : End Credits
复制代码

梦想之地(台) / 农情家园(港) / 미나리 / 水芹菜/米纳里4K Minari.2020.iTA-KOR.WEBDL.2160p.x265电影下载

米纳里4K Minari.2020.iTA-KOR.WEBDL.2160p.x265【12.8 GB】
米纳里4k.txt (89 Bytes)
回复

使用道具 举报

全部回复1

小兔叽乖乖 发表于 2021-5-17 14:02:41

小兔叽乖乖 2

2021-5-17 14:02:41

确实很起劲
回复 支持 反对

使用道具 举报

   发表回复

您需要登录后才可以回帖 登录 | 立即注册

返回列表 本版积分规则

  • 在线客服

  • 返回顶部