微博 微信

Hao4K影音

电影频道
电影封面:
片  名: 千与千寻
电影分类: 动画 
国  家: 日本 
年  代: 00年代
分 辨 率: 4K(3840x2160)
电影格式: MKV|REMUX 
画质标准: SDR 
音质编码: 其他AAC 
电影声道: 2.0声道 
帧数/FPS: 23.976 帧
电影语言: 中文简体 
资源大小: 19 GB
导  演: 宫崎骏
豆瓣评分: 9.4 分
中文字幕:
剧情简介: 千寻和爸爸妈妈一同驱车前往新家,在郊外的小路上不慎进入了神秘的隧道——他们去到了另外一个诡异世界—一个中世纪的小镇。远处飘来食物的香味,爸爸妈妈大快朵颐,孰料之后变成了猪!这时小镇上渐渐来了许多样子古怪、半透明的人。
  千寻仓皇逃出,一个叫小白的人救了他,喂了她阻止身体消 失的药,并且告诉她怎样去找锅炉爷爷以及汤婆婆,而且必须获得一份工作才能不被魔法变成别的东西。
  千寻在小白的帮助下幸运地获得了一份在浴池打杂的工作。渐渐她不再被那些怪模怪样的人吓倒,并从小玲那儿知道了小白是凶恶的汤婆婆的弟子。
  一次,千寻发现小白被一群白色飞舞的纸人打伤,为了救受伤的小白,她用河神送给她的药丸驱出了小白身体内的封印以及守封印的小妖精,但小白还是没有醒过来。
  为了救小白,千寻又踏上了她的冒险之旅。 ©豆瓣
转自诸神。
种子文件内只有日文语音,迅雷下载这个种子飞快的。

论坛内有中文语音,修改后资源也有近20G,百度云什么的上传才1M/S,太慢了,所以朋友们自己动手吧,mkvtoolnix合成还是很方便的。
顺便提供一下字幕,暂时听了一下,一字不差,相当不错~

时间是----02:04:32 和蓝光版本是一样的。



图片1_看图王.jpg



General
Unique ID                      : 315305738531662551417230495146037216859 (0xED35AD251C8968FD23117B5D1844065B)
Complete name                  : F:\千与千寻4K.mkv
Format                         : Matroska
Format version                 : Version 4
File size                      : 18.2 GiB
Duration                       : 2 h 4 min
Overall bit rate               : 21.0 Mb/s
Encoded date                   : UTC 2021-05-17 07:21:27
Writing application            : mkvmerge v56.1.0 ('My Friend') 32-bit
Writing library                : libebml v1.4.2 + libmatroska v1.6.4
Video
ID                             : 1
Format                         : HEVC
Format/Info                    : High Efficiency Video Coding
Format profile                 : Main 10@L5.1@High
Codec ID                       : V_MPEGH/ISO/HEVC
Duration                       : 2 h 4 min
Bit rate                       : 20.5 Mb/s
Width                          : 3 840 pixels
Height                         : 2 072 pixels
Display aspect ratio           : 1.85:1
Frame rate mode                : Constant
Frame rate                     : 23.976 (24000/1001) FPS
Color space                    : YUV
Chroma subsampling             : 4:2:0
Bit depth                      : 10 bits
Bits/(Pixel*Frame)             : 0.108
Stream size                    : 17.8 GiB (98%)
Writing library                : x265 2.4+2-5bc5e73760cdb61d:[Windows][GCC 6.3.0][64 bit] 10bit: KG7x [x265.ru]
Encoding settings              : cpuid=1173503 / frame-threads=3 / numa-pools=12 / wpp / no-pmode / no-pme / no-psnr / no-ssim / log-level=2 / input-csp=1 / input-res=3840x2072 / interlace=0 / total-frames=0 / level-idc=51 / high-tier=1 / uhd-bd=0 / ref=4 / no-allow-non-conformance / no-repeat-headers / annexb / no-aud / no-hrd / info / hash=0 / no-temporal-layers / no-open-gop / min-keyint=23 / keyint=250 / bframes=4 / b-adapt=2 / b-pyramid / bframe-bias=0 / rc-lookahead=25 / lookahead-slices=4 / scenecut=40 / no-intra-refresh / ctu=64 / min-cu-size=8 / rect / no-amp / max-tu-size=32 / tu-inter-depth=1 / tu-intra-depth=1 / limit-tu=0 / rdoq-level=2 / dynamic-rd=0.00 / no-ssim-rd / signhide / no-tskip / nr-intra=0 / nr-inter=0 / no-constrained-intra / strong-intra-smoothing / max-merge=3 / limit-refs=3 / limit-modes / me=3 / subme=3 / merange=57 / temporal-mvp / weightp / no-weightb / no-analyze-src-pics / deblock=0:0 / no-sao / no-sao-non-deblock / rd=4 / no-early-skip / rskip / no-fast-intra / no-tskip-fast / no-cu-lossless / no-b-intra / rdpenalty=0 / psy-rd=2.00 / psy-rdoq=1.00 / no-rd-refine / analysis-mode=0 / no-lossless / cbqpoffs=0 / crqpoffs=0 / rc=crf / crf=18.0 / qcomp=0.60 / qpstep=4 / stats-write=0 / stats-read=0 / vbv-maxrate=160000 / vbv-bufsize=160000 / vbv-init=0.9 / crf-max=0.0 / crf-min=0.0 / ipratio=1.40 / pbratio=1.30 / aq-mode=1 / aq-strength=1.00 / cutree / zone-count=0 / no-strict-cbr / qg-size=32 / no-rc-grain / qpmax=69 / qpmin=0 / sar=0 / overscan=0 / videoformat=5 / range=0 / colorprim=2 / transfer=2 / colormatrix=2 / chromaloc=0 / display-window=0 / max-cll=0,0 / min-luma=0 / max-luma=1023 / log2-max-poc-lsb=8 / vui-timing-info / vui-hrd-info / slices=1 / opt-qp-pps / opt-ref-list-length-pps / no-multi-pass-opt-rps / scenecut-bias=0.05 / no-opt-cu-delta-qp / no-aq-motion / no-hdr / no-hdr-opt / no-dhdr10-opt / refine-level=5 / no-limit-sao
Default                        : Yes
Forced                         : No
Audio
ID                             : 2
Format                         : AC-3
Format/Info                    : Audio Coding 3
Commercial name                : Dolby Digital
Codec ID                       : A_AC3
Duration                       : 2 h 4 min
Bit rate mode                  : Constant
Bit rate                       : 448 kb/s
Channel(s)                     : 6 channels
Channel layout                 : L R C LFE Ls Rs
Sampling rate                  : 48.0 kHz
Frame rate                     : 31.250 FPS (1536 SPF)
Compression mode               : Lossy
Stream size                    : 399 MiB (2%)
Title                          : 国语Mandarin
Language                       : Chinese
Service kind                   : Complete Main
Default                        : Yes
Forced                         : No
Text
ID                             : 3
Format                         : UTF-8
Codec ID                       : S_TEXT/UTF8
Codec ID/Info                  : UTF-8 Plain Text
Duration                       : 2 h 3 min
Bit rate                       : 34 b/s
Count of elements              : 1416
Stream size                    : 31.3 KiB (0%)
Title                          : 国语Mandarin
Language                       : Chinese
Default                        : Yes
Forced                         : No




千与千寻4K.torrent (216.65 KB)
回复

使用道具 举报

全部回复50

chambers1971 发表于 2021-5-18 07:56:26

chambers1971 推荐

2021-5-18 07:56:26

评分最高的动画片,我是没看懂,感觉很一般,可能大家都是皇帝的新装吧,生怕别人说自己看不懂,所以就评分最高了,我还是喜欢疯狂动物城那种简单,轻松的,可能我比较幼稚。
回复 支持 3 反对 4

使用道具 举报

zzssww000 发表于 2021-5-20 00:22:18

zzssww000 推荐

2021-5-20 00:22:18

chambers1971 发表于 2021-5-18 07:56
评分最高的动画片,我是没看懂,感觉很一般,可能大家都是皇帝的新装吧,生怕别人说自己看不懂,所以就评分 ...

你没看懂说你没看懂的。。。。带上别人干嘛?按照你的逻辑所有高分都是皇帝的新衣?都是跟风评论?那请问一开头的高分拿来的?你是觉得世界上不应该存在高分好片是么?
实在理解不上去你可以搜解说啊。。。网上一大堆,结合自己理解,有什么看不懂的呢。。又不是纯艺术片
回复 支持 4 反对 0

使用道具 举报

scbzzyou0429 发表于 2021-5-18 08:03:14

scbzzyou0429 4

2021-5-18 08:03:14

感谢无私分享!
回复 支持 反对

使用道具 举报

mmdlj 发表于 2021-5-18 09:46:05

mmdlj 5

2021-5-18 09:46:05

感谢无私分享
回复 支持 反对

使用道具 举报

zypjn 发表于 2021-5-18 12:22:55

zypjn 6

2021-5-18 12:22:55

我下载了个100多G的千与千寻,这是怎么回事? 无标题.png
回复 支持 反对

使用道具 举报

zhrmghg1128 发表于 2021-5-18 18:35:35

zhrmghg1128 7

2021-5-18 18:35:35

谢谢分享
回复 支持 反对

使用道具 举报

hhai420 发表于 2021-5-18 20:11:11

hhai420 8

2021-5-18 20:11:11

感谢无私分享
回复 支持 反对

使用道具 举报

jeemin 发表于 2021-5-18 21:57:26

jeemin 9

2021-5-18 21:57:26

谢谢楼主分享喽
回复 支持 反对

使用道具 举报

jeemin 发表于 2021-5-18 22:03:04

jeemin 10

2021-5-18 22:03:04

chambers1971 发表于 2021-5-18 07:56
评分最高的动画片,我是没看懂,感觉很一般,可能大家都是皇帝的新装吧,生怕别人说自己看不懂,所以就评分 ...

这。。我只能说你只能看肤浅的片子
名片你一个也看不了
比如 阿甘正传
回复 支持 反对

使用道具 举报

hk1560777 发表于 2021-5-18 22:56:26

hk1560777 11

2021-5-18 22:56:26

chambers1971 发表于 2021-5-18 07:56
评分最高的动画片,我是没看懂,感觉很一般,可能大家都是皇帝的新装吧,生怕别人说自己看不懂,所以就评分 ...

自己看不懂就说别人也看不懂,是穿皇帝的新衣,这是什么心理
回复 支持 反对

使用道具 举报

haoanjing 发表于 2021-5-18 23:33:24

haoanjing 12

2021-5-18 23:33:24

感谢无私的分享!
回复 支持 反对

使用道具 举报

253141614 发表于 2021-5-18 23:53:45

253141614 13

2021-5-18 23:53:45

zypjn 发表于 2021-5-18 12:22
我下载了个100多G的千与千寻,这是怎么回事?

应该没这么大的吧,即使是普通电影原盘,大多数4K也是在60-80G。
回复 支持 反对

使用道具 举报

253141614 发表于 2021-5-18 23:56:53

253141614 14

2021-5-18 23:56:53

chambers1971 发表于 2021-5-18 07:56
评分最高的动画片,我是没看懂,感觉很一般,可能大家都是皇帝的新装吧,生怕别人说自己看不懂,所以就评分 ...

没看懂没关系啊,影视作品,一千个读者有一千个哈姆雷特,我也有过评分很高或者评价很好的,我却看不懂或者不喜欢的。
回复 支持 反对

使用道具 举报

dance97 发表于 2021-5-19 01:54:21

dance97 15

2021-5-19 01:54:21

chambers1971 发表于 2021-5-18 07:56
评分最高的动画片,我是没看懂,感觉很一般,可能大家都是皇帝的新装吧,生怕别人说自己看不懂,所以就评分 ...

说明你还小,羡慕
回复 支持 反对

使用道具 举报

helloobiwan 发表于 2021-5-19 08:35:34

helloobiwan 16

2021-5-19 08:35:34

zypjn 发表于 2021-5-18 12:22
我下载了个100多G的千与千寻,这是怎么回事?

这是你的版本rip压缩压制的色深10bit了
回复 支持 反对

使用道具 举报

bailing 发表于 2021-5-19 09:51:12

bailing 17

2021-5-19 09:51:12

chambers1971 发表于 2021-5-18 07:56
评分最高的动画片,我是没看懂,感觉很一般,可能大家都是皇帝的新装吧,生怕别人说自己看不懂,所以就评分 ...

你这评论真可笑,我一时间竟找不到适合你的词语
回复 支持 反对

使用道具 举报

bulleye 发表于 2021-5-19 10:01:22

bulleye 18

2021-5-19 10:01:22

不需要看懂,只希望大家都知道这世界有善良也有贪欲。不要迷失自我。好好生活就好。
回复 支持 反对

使用道具 举报

vainglory 发表于 2021-5-19 12:21:31

vainglory 19

2021-5-19 12:21:31

感谢分享,精彩的动画
回复 支持 反对

使用道具 举报

   发表回复

您需要登录后才可以回帖 登录 | 立即注册

返回列表 本版积分规则

关闭

站内通知上一条 /1 下一条

  • 在线客服

  • 返回顶部