微博 微信

Hao4K影音

[美剧] 歌舞青春:音乐剧集 第二季4k S02E01.2160p.美剧下载

2021-5-17 16:56:01 6729 0 |只看大图 回帖奖励 |倒序浏览 |阅读模式

大红色 帖主

2021-5-17 16:56:01

电视剧频道
电视剧封面:
电视剧名: 歌舞青春:音乐剧集 第二季4k
年  代: 2021  
国  家: 美国
类  别: 喜剧 歌舞 
语  言: 英语
字  幕: 英文原版
上映日期: 2021-05-14
文件格式: mkv    
视频效果: 4K(3840x2160)    
资源大小: 3.97 GB
片  长: -
导  演: 蒂姆·费德勒尔 / 彼得·巴索奇尼
剧情简介: 剧版《歌舞青春》第2季发布前瞻视频,宣布东高戏剧部的学生们将要上演《美女与野兽》。
High School Musical/歌舞青春:音乐剧集 第二季4k High.School.Musical.The.Musical.The.Series.S02E01.2160p.DSNP.WEB-DL.x265.10bit.HDR.DDP5.1.Atmos美剧信息
  1. Video
  2. ID : 1
  3. Format : HEVC
  4. Format/Info : High Efficiency Video Coding
  5. Format profile : Main 10@L5@High
  6. Codec ID : V_MPEGH/ISO/HEVC
  7. Duration : 34 min 18 s
  8. Bit rate : 15.8 Mb/s
  9. Width : 3 840 pixels
  10. Height : 2 160 pixels
  11. Display aspect ratio : 16:9
  12. Frame rate mode : Constant
  13. Frame rate : 23.976 (24000/1001) FPS
  14. Color space : YUV
  15. Chroma subsampling : 4:2:0
  16. Bit depth : 10 bits
  17. Bits/(Pixel*Frame) : 0.079
  18. Stream size : 3.79 GiB (95%)
  19. Default : Yes
  20. Forced : No
  21. Color range : Limited
  22. Color primaries : BT.2020
  23. Transfer characteristics : PQ
  24. Matrix coefficients : BT.2020 non-constant

  25. Audio
  26. ID : 2
  27. Format : E-AC-3 JOC
  28. Format/Info : Enhanced AC-3 with Joint Object Coding
  29. Commercial name : Dolby Digital Plus with Dolby Atmos
  30. Codec ID : A_EAC3
  31. Duration : 34 min 18 s
  32. Bit rate mode : Constant
  33. Bit rate : 768 kb/s
  34. Channel(s) : 6 channels
  35. Channel layout : L R C LFE Ls Rs
  36. Sampling rate : 48.0 kHz
  37. Frame rate : 31.250 FPS (1536 SPF)
  38. Compression mode : Lossy
  39. Stream size : 188 MiB (5%)
  40. Title : English
  41. Language : English
  42. Service kind : Complete Main
  43. Default : No
  44. Forced : No
  45. Complexity index : 16
  46. Number of dynamic objects : 15
  47. Bed channel count : 1 channel
  48. Bed channel configuration : LFE

  49. Text #1
  50. ID : 3
  51. Format : UTF-8
  52. Codec ID : S_TEXT/UTF8
  53. Codec ID/Info : UTF-8 Plain Text
  54. Duration : 34 min 12 s
  55. Bit rate : 70 b/s
  56. Count of elements : 649
  57. Stream size : 17.6 KiB (0%)
  58. Title : Norwegian
  59. Language : Norwegian
  60. Default : No
  61. Forced : No

  62. Text #2
  63. ID : 4
  64. Format : UTF-8
  65. Codec ID : S_TEXT/UTF8
  66. Codec ID/Info : UTF-8 Plain Text
  67. Duration : 34 min 12 s
  68. Bit rate : 75 b/s
  69. Count of elements : 604
  70. Stream size : 19.0 KiB (0%)
  71. Title : French
  72. Language : French
  73. Default : No
  74. Forced : No

  75. Text #3
  76. ID : 5
  77. Format : UTF-8
  78. Codec ID : S_TEXT/UTF8
  79. Codec ID/Info : UTF-8 Plain Text
  80. Duration : 34 min 12 s
  81. Bit rate : 72 b/s
  82. Count of elements : 646
  83. Stream size : 18.2 KiB (0%)
  84. Title : Swedish
  85. Language : Swedish
  86. Default : No
  87. Forced : No

  88. Text #4
  89. ID : 6
  90. Format : UTF-8
  91. Codec ID : S_TEXT/UTF8
  92. Codec ID/Info : UTF-8 Plain Text
  93. Duration : 34 min 12 s
  94. Bit rate : 68 b/s
  95. Count of elements : 646
  96. Stream size : 17.1 KiB (0%)
  97. Title : Finnish
  98. Language : Finnish
  99. Default : No
  100. Forced : No

  101. Text #5
  102. ID : 7
  103. Format : UTF-8
  104. Codec ID : S_TEXT/UTF8
  105. Codec ID/Info : UTF-8 Plain Text
  106. Duration : 34 min 12 s
  107. Bit rate : 76 b/s
  108. Count of elements : 629
  109. Stream size : 19.2 KiB (0%)
  110. Title : German
  111. Language : German
  112. Default : No
  113. Forced : No
复制代码


High School Musical/歌舞青春:音乐剧集 第二季4k High.School.Musical.The.Musical.The.Series.S02E01.2160p.DSNP.WEB-DL.x265.10bit.HDR.DDP5.1.Atmos美剧下载

歌舞青春:音乐剧集 第二季4k High.School.Musical.The.Musical.The.Series.S02E01.2160p.DSNP.WEB-DL.x265.10bit.HDR.DDP5.1.Atmos【3.97 GB】
[Hao4k]歌舞青春:音乐剧集 第二季4k High.School.Musical.The.Musical.The.Series.S0.torrent (40.46 KB)
回复

使用道具 举报

   发表回复

您需要登录后才可以回帖 登录 | 立即注册

返回列表 本版积分规则

:
白银玩家
:
未填写

主题

帖子

积分1161

关闭

站内通知上一条 /1 下一条

  • 在线客服

  • 返回顶部