微博 微信

Hao4K影音

[美剧] 地下铁道4k The.Underground.Railroad.S01.2160p.美剧下载

2021-5-19 10:19:49 20914 1 |只看大图 回帖奖励 |倒序浏览 |阅读模式

大红色 帖主

2021-5-17 17:27:51

电视剧频道
电视剧封面:
电视剧名: 地下铁道4k
年  代: 2021  
国  家: 美国
类  别: 剧情 
语  言: 英语
字  幕: 英文原版
上映日期: 2021-05-14
文件格式: mkv    
视频效果: 4K(3840x2160)    
资源大小: 61.60 GB
片  长: 60 分钟
导  演: 巴里·詹金斯
剧情简介:  剧集根据科尔森·怀特黑德撰写,获得普利策小说奖的同名作品改编,讲述黑奴女孩科拉为逃离佐治亚的种植园,而寻找传闻中的“地下铁道”,而就在寻找的过程中,她发现真的存在着字面意义的地下铁道,帮助奴隶们逃离残酷的生活。詹金斯将执导全部11集,每集1小时。
地下铁道4k The.Underground.Railroad.S01.2160p.AMZN.WEB-DL.x265.10bit.HDR10Plus.DDP5.1美剧信息
  1. Video
  2. ID : 1
  3. Format : HEVC
  4. Format/Info : High Efficiency Video Coding
  5. Format profile : Main 10@L5@Main
  6. HDR format : SMPTE ST 2094 App 4, Version 1, HDR10+ Profile B compatible
  7. Codec ID : V_MPEGH/ISO/HEVC
  8. Duration : 1 h 17 min
  9. Bit rate : 14.2 Mb/s
  10. Width : 3 840 pixels
  11. Height : 2 160 pixels
  12. Display aspect ratio : 16:9
  13. Frame rate mode : Constant
  14. Frame rate : 23.976 (24000/1001) FPS
  15. Color space : YUV
  16. Chroma subsampling : 4:2:0
  17. Bit depth : 10 bits
  18. Bits/(Pixel*Frame) : 0.072
  19. Stream size : 7.71 GiB (94%)
  20. Default : Yes
  21. Forced : No
  22. Color range : Limited
  23. Color primaries : BT.2020
  24. Transfer characteristics : PQ
  25. Matrix coefficients : BT.2020 non-constant
  26. Mastering display color primaries : Display P3
  27. Mastering display luminance : min: 0.0001 cd/m2, max: 1000 cd/m2
  28. Maximum Content Light Level : 249 cd/m2
  29. Maximum Frame-Average Light Level : 120 cd/m2

  30. Audio
  31. ID : 2
  32. Format : E-AC-3
  33. Format/Info : Enhanced AC-3
  34. Commercial name : Dolby Digital Plus
  35. Codec ID : A_EAC3
  36. Duration : 1 h 17 min
  37. Bit rate mode : Constant
  38. Bit rate : 640 kb/s
  39. Channel(s) : 6 channels
  40. Channel layout : L R C LFE Ls Rs
  41. Sampling rate : 48.0 kHz
  42. Frame rate : 31.250 FPS (1536 SPF)
  43. Compression mode : Lossy
  44. Stream size : 355 MiB (4%)
  45. Language : English
  46. Service kind : Complete Main
  47. Default : Yes
  48. Forced : No

  49. Text #1
  50. ID : 3
  51. Format : UTF-8
  52. Codec ID : S_TEXT/UTF8
  53. Codec ID/Info : UTF-8 Plain Text
  54. Title : English
  55. Language : English
  56. Default : No
  57. Forced : No

  58. Text #2
  59. ID : 4
  60. Format : UTF-8
  61. Codec ID : S_TEXT/UTF8
  62. Codec ID/Info : UTF-8 Plain Text
  63. Title : Arabic
  64. Language : Arabic
  65. Default : No
  66. Forced : No

  67. Text #3
  68. ID : 5
  69. Format : UTF-8
  70. Codec ID : S_TEXT/UTF8
  71. Codec ID/Info : UTF-8 Plain Text
  72. Title : Chinese Simplified
  73. Language : Chinese
  74. Default : No
  75. Forced : No

  76. Text #4
  77. ID : 6
  78. Format : UTF-8
  79. Codec ID : S_TEXT/UTF8
  80. Codec ID/Info : UTF-8 Plain Text
  81. Title : Chinese Traditional
  82. Language : Chinese
  83. Default : No
  84. Forced : No

  85. Text #5
  86. ID : 7
  87. Format : UTF-8
  88. Codec ID : S_TEXT/UTF8
  89. Codec ID/Info : UTF-8 Plain Text
  90. Title : Czech (Czechia)
  91. Language : Czech
  92. Default : No
  93. Forced : No

  94. Text #6
  95. ID : 8
  96. Format : UTF-8
  97. Codec ID : S_TEXT/UTF8
  98. Codec ID/Info : UTF-8 Plain Text
  99. Title : Danish
  100. Language : Danish
  101. Default : No
  102. Forced : No

  103. Text #7
  104. ID : 9
  105. Format : UTF-8
  106. Codec ID : S_TEXT/UTF8
  107. Codec ID/Info : UTF-8 Plain Text
  108. Title : Dutch
  109. Language : Dutch
  110. Default : No
  111. Forced : No
复制代码


地下铁道4k The.Underground.Railroad.S01.2160p.AMZN.WEB-DL.x265.10bit.HDR10Plus.DDP5.1美剧下载

地下铁道4k The.Underground.Railroad.S01.2160p.AMZN.WEB-DL.x265.10bit.HDR10Plus.DDP5.1【61.60 GB】
[Hao4k]地下铁道4k The.Underground.Railroad.S01.2160p.AMZN.WEB-DL.x265.10bit.HDR1.torrent (155.51 KB)
回复

使用道具 举报

全部回复1

无名氏930 发表于 2021-5-19 10:19:49

无名氏930 2

2021-5-19 10:19:49

感谢分享
回复 支持 反对

使用道具 举报

   发表回复

您需要登录后才可以回帖 登录 | 立即注册

返回列表 本版积分规则

:
白银玩家
:
未填写

主题

帖子

积分1161

关闭

站内通知上一条 /1 下一条

  • 在线客服

  • 返回顶部