微博 微信

Hao4K影音

[美剧] 猎鹰与冬兵4k The.Falcon.and.The.Winter.Soldier.S01.2160p.杜比视界美剧下载

6 天前 74158 23 回帖奖励 |倒序浏览 |阅读模式

大红色 帖主

2021-5-17 17:43:22

电视剧频道
电视剧封面:
电视剧名: 猎鹰与冬兵4k
年  代: 2021  
国  家: 美国
类  别: 动作 科幻 冒险 剧情 
语  言: 英语
字  幕: 英文原版
上映日期: 2021-03-19
文件格式: mkv    
视频效果: 4K(3840x2160)    
资源大小: 47.36 GB
片  长: 60 分钟
导  演: 卡莉·斯考格兰德
剧情简介: 在《复仇者联盟:终局之战》之后,萨姆·威尔逊(猎鹰)和巴奇·巴恩斯(冬兵)联合参与了一场全球性冒险行动,他们的能力和耐心受到考验。
猎鹰与冬日战士 / Falcon & Winter Soldier / 獵鷹與酷寒戰士/猎鹰与冬兵4k The.Falcon.and.The.Winter.Soldier.S01.2160p.WEB-DL.DDP5.1.Atmos.DV.x265美剧信息
  1. Video
  2. ID : 1
  3. Format : HEVC
  4. Format/Info : High Efficiency Video Coding
  5. Format profile : Main 10@L5.2@Main
  6. HDR format : Dolby Vision, Version 1.0, dvhe.05.06, BL+RPU
  7. Codec ID : dvhe
  8. Codec ID/Info : High Efficiency Video Coding with Dolby Vision
  9. Duration : 47 min 18 s
  10. Bit rate : 21.6 Mb/s
  11. Width : 3 840 pixels
  12. Height : 2 160 pixels
  13. Display aspect ratio : 16:9
  14. Frame rate mode : Constant
  15. Frame rate : 24.000 FPS
  16. Color space : YUV
  17. Chroma subsampling : 4:2:0 (Type 0)
  18. Bit depth : 10 bits
  19. Bits/(Pixel*Frame) : 0.108
  20. Stream size : 7.13 GiB (97%)
  21. Default : Yes
  22. Alternate group : 1
  23. Tagged date : UTC 2021-05-06 13:41:24
  24. Color range : Full
  25. Codec configuration box : hvcC+dvcC

  26. Audio
  27. ID : 2
  28. Format : E-AC-3 JOC
  29. Format/Info : Enhanced AC-3 with Joint Object Coding
  30. Commercial name : Dolby Digital Plus with Dolby Atmos
  31. Codec ID : ec-3
  32. Duration : 47 min 18 s
  33. Source duration : 47 min 15 s
  34. Bit rate mode : Constant
  35. Bit rate : 768 kb/s
  36. Maximum bit rate : 811 kb/s
  37. Channel(s) : 6 channels
  38. Channel layout : L R C LFE Ls Rs
  39. Sampling rate : 48.0 kHz
  40. Frame rate : 31.250 FPS (1536 SPF)
  41. Compression mode : Lossy
  42. Stream size : 260 MiB (3%)
  43. Source stream size : 260 MiB (3%)
  44. Language : English
  45. Service kind : Complete Main
  46. Default : Yes
  47. Alternate group : 2
  48. Tagged date : UTC 2021-05-06 13:41:24
  49. Complexity index : Not present / 16
  50. Number of dynamic objects : 15
  51. Bed channel count : 1 channel
  52. Bed channel configuration : LFE

  53. Text #1
  54. ID : 3
  55. Format : Timed Text
  56. Codec ID : tx3g
  57. Duration : 47 min 14 s
  58. Bit rate mode : Variable
  59. Bit rate : 53 b/s
  60. Stream size : 18.4 KiB (0%)
  61. Title : Svenska
  62. Language : Swedish
  63. Forced : No
  64. Tagged date : UTC 2021-05-06 13:41:24

  65. Text #2
  66. ID : 4
  67. Format : Timed Text
  68. Codec ID : tx3g
  69. Duration : 47 min 14 s
  70. Bit rate mode : Variable
  71. Bit rate : 50 b/s
  72. Stream size : 17.2 KiB (0%)
  73. Title : Suomi
  74. Language : Finnish
  75. Forced : No
  76. Tagged date : UTC 2021-05-06 13:41:24

  77. Text #3
  78. ID : 5
  79. Format : Timed Text
  80. Codec ID : tx3g
  81. Duration : 47 min 14 s
  82. Bit rate mode : Variable
  83. Bit rate : 57 b/s
  84. Stream size : 19.8 KiB (0%)
  85. Title : PortuguÃas (Brasil)
  86. Language : Portuguese
  87. Forced : No
  88. Tagged date : UTC 2021-05-06 13:41:24

  89. Text #4
  90. ID : 6
  91. Format : Timed Text
  92. Codec ID : tx3g
  93. Duration : 47 min 14 s
  94. Bit rate mode : Variable
  95. Bit rate : 54 b/s
  96. Stream size : 18.6 KiB (0%)
  97. Title : PortuguÃas
  98. Language : Portuguese
  99. Forced : No
  100. Tagged date : UTC 2021-05-06 13:41:2
复制代码


猎鹰与冬日战士 / Falcon & Winter Soldier / 獵鷹與酷寒戰士/猎鹰与冬兵4k The.Falcon.and.The.Winter.Soldier.S01.2160p.WEB-DL.DDP5.1.Atmos.DV.x265美剧下载

猎鹰与冬兵4k The.Falcon.and.The.Winter.Soldier.S01.2160p.WEB-DL.DDP5.1.Atmos.DV.x265【47.36 GB】
[Hao4k]猎鹰与冬兵4k The.Falcon.and.The.Winter.Soldier.S01.2160p.WEB-DL.DDP5.1.At.torrent (119.67 KB)
回复

使用道具 举报

全部回复23

jealpoint 发表于 2021-5-19 22:38:44

jealpoint 推荐

2021-5-19 22:38:44

颜色不正常怎么弄
回复 支持 3 反对 0

使用道具 举报

yangqing30000 发表于 2021-6-3 10:48:30

yangqing30000 推荐

2021-6-3 10:48:30

我也是颜色不正常,偏紫色
回复 支持 1 反对 0

使用道具 举报

老七的糖糖包 发表于 4 天前

老七的糖糖包 推荐

4 天前

下完了没法看,颜色发紫,浪费时间浪费金钱
回复 支持 1 反对 0

使用道具 举报

依依小茉茉 发表于 2021-5-18 08:44:12

依依小茉茉 5

2021-5-18 08:44:12

这个是杜比世界版本吗?
回复 支持 反对

使用道具 举报

chenpengno 发表于 2021-5-18 22:02:36

chenpengno 6

2021-5-18 22:02:36

是杜比视界的,谢谢
回复 支持 反对

使用道具 举报

无名氏930 发表于 2021-5-19 10:19:22

无名氏930 7

2021-5-19 10:19:22

感谢分享
回复 支持 反对

使用道具 举报

kuyzx 发表于 2021-5-21 14:38:38

kuyzx 8

2021-5-21 14:38:38

非常感谢分享
回复 支持 反对

使用道具 举报

kkxlbf 发表于 2021-5-21 23:52:21

kkxlbf 9

2021-5-21 23:52:21

jealpoint 发表于 2021-5-19 22:38
颜色不正常怎么弄

同问,用potplay或者VLC都是。显卡RTX2060
回复 支持 反对

使用道具 举报

raymondhwm 发表于 2021-5-23 23:14:08

raymondhwm 10

2021-5-23 23:14:08

感谢分享
回复 支持 反对

使用道具 举报

fanxianhua 发表于 2021-5-26 08:47:43

fanxianhua 11

2021-5-26 08:47:43

非常感谢分享
回复 支持 反对

使用道具 举报

kuyzx 发表于 2021-5-27 12:39:00

kuyzx 12

2021-5-27 12:39:00

为什么颜色偏紫,明明钢铁战衣是红色结果变成紫色的。
回复 支持 反对

使用道具 举报

lelel 发表于 2021-5-27 17:31:13

lelel 13

2021-5-27 17:31:13

牛逼666我滴包贝尔
回复 支持 反对

使用道具 举报

liuD 发表于 2021-5-30 08:51:44

liuD 14

2021-5-30 08:51:44

感谢分享,来看看!
回复 支持 反对

使用道具 举报

tzx72 发表于 2021-6-3 17:43:31

tzx72 15

2021-6-3 17:43:31

感谢分享
回复 支持 反对

使用道具 举报

bony830912 发表于 2021-6-4 05:34:53

bony830912 16

2021-6-4 05:34:53

用硬盘 用支持杜比视界的电视看就可以
回复 支持 反对

使用道具 举报

fuxingwenk 发表于 2021-6-4 19:45:35

fuxingwenk 17

2021-6-4 19:45:35


感谢分享好电影
回复 支持 反对

使用道具 举报

遥望星空 发表于 6 天前

遥望星空 18

6 天前

射射分享
回复 支持 反对

使用道具 举报

   发表回复

您需要登录后才可以回帖 登录 | 立即注册

返回列表 本版积分规则

:
白银玩家
:
未填写

主题

帖子

积分1149

  • 在线客服

  • 返回顶部