微博 微信

Hao4K影音

电影频道
电影封面:
片  名: 鬼马太空猫4K
电影分类: 科幻 喜剧 
国  家: 美国 
年  代: 70年代
分 辨 率: 4K(3840x2160)
电影格式: MKV|REMUX 
画质标准: HDR 
音质编码: Dolby Digital Plus Audio 
电影声道: 2.0声道 
帧数/FPS: 23.976 帧
电影语言: 英文原版 
资源大小: 12.12 GB
导  演: 诺曼·托卡
豆瓣评分: 6.9 分
中文字幕: -
剧情简介: 三名科学家帮助一只被困在地球上的外星猫科动物修复其受损的太空船,以便返回家园,但他们的努力受到无能的军方官员和外国间谍的阻碍。
  一个不明飞行物被困在地球上,被美国政府扣押。它的领航员是一只戴着项圈的猫,有着特殊的能力,包括让猫与人类交流的能力,他躲过了当局的追捕,需要一个名叫弗兰克的人的帮助,才能收回并修理他的船,以便回家。
外星猫/鬼马太空猫4K.The.Cat.From.Outer.Space.1978.2160p.DSNP.WEB-DL.x265.10bit.HDR.DDP2.0-4k电影信息
  1. Video
  2. ID : 1
  3. Format : HEVC
  4. Format/Info : High Efficiency Video Coding
  5. Format profile : Main 10@L5@High
  6. Codec ID : V_MPEGH/ISO/HEVC
  7. Duration : 1 h 43 min
  8. Bit rate : 16.5 Mb/s
  9. Width : 3 840 pixels
  10. Height : 2 160 pixels
  11. Display aspect ratio : 16:9
  12. Frame rate mode : Constant
  13. Frame rate : 23.976 (24000/1001) FPS
  14. Color space : YUV
  15. Chroma subsampling : 4:2:0
  16. Bit depth : 10 bits
  17. Bits/(Pixel*Frame) : 0.083
  18. Stream size : 12.0 GiB (99%)
  19. Default : Yes
  20. Forced : No
  21. Color range : Limited
  22. Color primaries : BT.2020
  23. Transfer characteristics : PQ
  24. Matrix coefficients : BT.2020 non-constant

  25. Audio
  26. ID : 2
  27. Format : E-AC-3
  28. Format/Info : Enhanced AC-3
  29. Commercial name : Dolby Digital Plus
  30. Codec ID : A_EAC3
  31. Duration : 1 h 43 min
  32. Bit rate mode : Constant
  33. Bit rate : 224 kb/s
  34. Channel(s) : 2 channels
  35. Channel layout : L R
  36. Sampling rate : 48.0 kHz
  37. Frame rate : 31.250 FPS (1536 SPF)
  38. Compression mode : Lossy
  39. Delay relative to video : 24 ms
  40. Stream size : 166 MiB (1%)
  41. Language : English
  42. Service kind : Complete Main
  43. Default : Yes
  44. Forced : No

  45. Text #1
  46. ID : 3
  47. Format : UTF-8
  48. Codec ID : S_TEXT/UTF8
  49. Codec ID/Info : UTF-8 Plain Text
  50. Duration : 1 h 43 min
  51. Bit rate : 57 b/s
  52. Count of elements : 1218
  53. Stream size : 43.8 KiB (0%)
  54. Title : European Spanish
  55. Language : Spanish
  56. Default : No
  57. Forced : No

  58. Text #2
  59. ID : 4
  60. Format : UTF-8
  61. Codec ID : S_TEXT/UTF8
  62. Codec ID/Info : UTF-8 Plain Text
  63. Duration : 1 h 42 min
  64. Bit rate : 53 b/s
  65. Count of elements : 1560
  66. Stream size : 39.8 KiB (0%)
  67. Title : Swedish
  68. Language : Swedish
  69. Default : No
  70. Forced : No

  71. Text #3
  72. ID : 5
  73. Format : UTF-8
  74. Codec ID : S_TEXT/UTF8
  75. Codec ID/Info : UTF-8 Plain Text
  76. Duration : 1 h 42 min
  77. Bit rate : 67 b/s
  78. Count of elements : 1636
  79. Stream size : 50.3 KiB (0%)
  80. Title : English
  81. Language : English
  82. Default : No
  83. Forced : No

  84. Text #4
  85. ID : 6
  86. Format : UTF-8
  87. Codec ID : S_TEXT/UTF8
  88. Codec ID/Info : UTF-8 Plain Text
  89. Duration : 1 h 43 min
  90. Bit rate : 57 b/s
  91. Count of elements : 1198
  92. Stream size : 43.6 KiB (0%)
  93. Title : Italian
  94. Language : Italian
  95. Default : No
  96. Forced : No

  97. Text #5
  98. ID : 7
  99. Format : UTF-8
  100. Codec ID : S_TEXT/UTF8
  101. Codec ID/Info : UTF-8 Plain Text
  102. Duration : 1 h 42 min
  103. Bit rate : 49 b/s
  104. Count of elements : 963
  105. Stream size : 37.1 KiB (0%)
  106. Title : Dutch
  107. Language : Dutch
  108. Default : No
  109. Forced : No

  110. Text #6
  111. ID : 8
  112. Format : UTF-8
  113. Codec ID : S_TEXT/UTF8
  114. Codec ID/Info : UTF-8 Plain Text
  115. Duration : 1 h 42 min
  116. Bit rate : 59 b/s
  117. Count of elements : 1573
  118. Stream size : 44.2 KiB (0%)
  119. Title : Danish
  120. Language : Danish
  121. Default : No
  122. Forced : No

  123. Text #7
  124. ID : 9
  125. Format : UTF-8
  126. Codec ID : S_TEXT/UTF8
  127. Codec ID/Info : UTF-8 Plain Text
  128. Duration : 1 h 42 min
  129. Bit rate : 45 b/s
  130. Count of elements : 1534
  131. Stream size : 34.1 KiB (0%)
  132. Title : Finnish
  133. Language : Finnish
  134. Default : No
  135. Forced : No

  136. Text #8
  137. ID : 10
  138. Format : UTF-8
  139. Codec ID : S_TEXT/UTF8
  140. Codec ID/Info : UTF-8 Plain Text
  141. Duration : 1 h 43 min
  142. Bit rate : 64 b/s
  143. Count of elements : 1240
  144. Stream size : 48.6 KiB (0%)
  145. Title : German
  146. Language : German
  147. Default : No
  148. Forced : No

  149. Text #9
  150. ID : 11
  151. Format : UTF-8
  152. Codec ID : S_TEXT/UTF8
  153. Codec ID/Info : UTF-8 Plain Text
  154. Duration : 1 h 42 min
  155. Bit rate : 56 b/s
  156. Count of elements : 1090
  157. Stream size : 42.2 KiB (0%)
  158. Title : French Canadian
  159. Language : French
  160. Default : No
  161. Forced : No

  162. Text #10
  163. ID : 12
  164. Format : UTF-8
  165. Codec ID : S_TEXT/UTF8
  166. Codec ID/Info : UTF-8 Plain Text
  167. Duration : 1 h 42 min
  168. Bit rate : 51 b/s
  169. Count of elements : 1574
  170. Stream size : 38.6 KiB (0%)
  171. Title : Norwegian
  172. Language : Norwegian
  173. Default : No
  174. Forced : No

  175. Text #11
  176. ID : 13
  177. Format : UTF-8
  178. Codec ID : S_TEXT/UTF8
  179. Codec ID/Info : UTF-8 Plain Text
  180. Duration : 1 h 43 min
  181. Bit rate : 60 b/s
  182. Count of elements : 1200
  183. Stream size : 46.1 KiB (0%)
  184. Title : French
  185. Language : French
  186. Default : No
  187. Forced : No

  188. Text #12
  189. ID : 14
  190. Format : UTF-8
  191. Codec ID : S_TEXT/UTF8
  192. Codec ID/Info : UTF-8 Plain Text
  193. Duration : 1 h 43 min
  194. Bit rate : 70 b/s
  195. Count of elements : 1765
  196. Stream size : 52.9 KiB (0%)
  197. Title : English [SDH]
  198. Language : English
  199. Default : No
  200. Forced : No

  201. Text #13
  202. ID : 15
  203. Format : UTF-8
  204. Codec ID : S_TEXT/UTF8
  205. Codec ID/Info : UTF-8 Plain Text
  206. Duration : 1 h 43 min
  207. Bit rate : 59 b/s
  208. Count of elements : 1234
  209. Stream size : 44.9 KiB (0%)
  210. Title : Portuguese
  211. Language : Portuguese
  212. Default : No
  213. Forced : No

  214. Text #14
  215. ID : 16
  216. Format : UTF-8
  217. Codec ID : S_TEXT/UTF8
  218. Codec ID/Info : UTF-8 Plain Text
  219. Duration : 1 h 42 min
  220. Bit rate : 51 b/s
  221. Count of elements : 1089
  222. Stream size : 38.7 KiB (0%)
  223. Title : Spanish
  224. Language : Spanish
  225. Default : No
  226. Forced : No

  227. Menu
  228. 00:00:00.000 : Scene 1
  229. 00:00:17.000 : Scene 2
  230. 00:03:35.000 : Scene 3
  231. 00:06:58.000 : Scene 4
  232. 00:08:38.000 : Scene 5
  233. 00:12:10.000 : Scene 6
  234. 00:15:53.000 : Scene 7
  235. 00:18:17.000 : Scene 8
  236. 00:21:04.000 : Scene 9
  237. 00:23:11.000 : Scene 10
  238. 00:27:52.000 : Scene 11
  239. 00:30:14.000 : Scene 12
  240. 00:33:52.000 : Scene 13
  241. 00:38:03.000 : Scene 14
  242. 00:42:02.000 : Scene 15
  243. 00:44:39.000 : Scene 16
  244. 00:48:47.000 : Scene 17
  245. 00:51:30.000 : Scene 18
  246. 00:52:35.000 : Scene 19
  247. 00:54:17.000 : Scene 20
  248. 00:59:24.000 : Scene 21
  249. 01:04:28.000 : Scene 22
  250. 01:11:04.000 : Scene 23
  251. 01:13:45.000 : Scene 24
  252. 01:15:30.000 : Scene 25
  253. 01:18:17.000 : Scene 26
  254. 01:20:41.000 : Scene 27
  255. 01:23:46.000 : Scene 28
  256. 01:27:08.000 : Scene 29
  257. 01:30:18.000 : Scene 30
  258. 01:36:33.000 : Scene 31
  259. 01:41:56.000 : Scene 32
  260. 01:43:29.000 : Scene 33
复制代码

外星猫/鬼马太空猫4K.The.Cat.From.Outer.Space.1978.2160p.DSNP.WEB-DL.x265.10bit.HDR.DDP2.0-4K电影下载

鬼马太空猫4K.The.Cat.From.Outer.Space.1978.2160p.DSNP.WEB-DL.x265.10bit.HDR.DDP2.0【4K HDR 12.12 GB】
[Hao4K]鬼马太空猫4K.The.Cat.From.Outer.Space.1978.2160p.DSNP.WEB-DL.x265.10bit.H.torrent (61.29 KB)
回复

使用道具 举报

全部回复14

hyy-741024 发表于 2021-5-17 21:42:19

hyy-741024 2

2021-5-17 21:42:19


多谢楼主大大
回复 支持 反对

使用道具 举报

夜泊星海 发表于 2021-5-17 23:19:44

夜泊星海 3

2021-5-17 23:19:44

看简介就觉得很猎奇
回复 支持 反对

使用道具 举报

Hobin 发表于 2021-5-18 01:03:53

Hobin 4

2021-5-18 01:03:53

有字幕吗
回复 支持 反对

使用道具 举报

dyczw 发表于 2021-5-18 06:36:22

dyczw 5

2021-5-18 06:36:22

感谢分享,辛苦了!
回复 支持 反对

使用道具 举报

benzx1983 发表于 2021-5-18 08:46:26

benzx1983 6

2021-5-18 08:46:26

都是没看过的也没听过 太棒了  感谢分享
回复 支持 反对

使用道具 举报

dxwayne 发表于 2021-5-18 09:12:40

dxwayne 7

2021-5-18 09:12:40

怎么总是发这么多比老掉牙的电影
回复 支持 0 反对 1

使用道具 举报

cardinlai 发表于 2021-5-18 09:39:53

cardinlai 8

2021-5-18 09:39:53

感谢分享
回复 支持 反对

使用道具 举报

cbb5565ok 发表于 2021-5-18 10:07:39 Hao4K手机版

cbb5565ok 9

2021-5-18 10:07:39

谢谢分享
回复 支持 反对

使用道具 举报

yangly 发表于 2021-5-18 11:49:37

yangly 10

2021-5-18 11:49:37


感谢分享,辛苦了!
回复 支持 反对

使用道具 举报

dragon_walk 发表于 2021-5-19 14:10:14

dragon_walk 11

2021-5-19 14:10:14

新奇特题材,下来看看
回复 支持 反对

使用道具 举报

qieting1989 发表于 2021-5-23 00:02:44

qieting1989 12

2021-5-23 00:02:44

谢谢楼主分享的怀旧资源~~
回复 支持 反对

使用道具 举报

19820578081 发表于 2021-5-29 17:39:16

19820578081 13

2021-5-29 17:39:16

谢谢分享。下载看看
回复 支持 反对

使用道具 举报

lhgctt 发表于 2021-6-4 08:33:56

lhgctt 14

2021-6-4 08:33:56

谢谢分享,辛苦了
回复 支持 反对

使用道具 举报

13356550813 发表于 5 天前

13356550813 15

5 天前

感谢分享!!!
回复 支持 反对

使用道具 举报

   发表回复

您需要登录后才可以回帖 登录 | 立即注册

返回列表 本版积分规则

  • 在线客服

  • 返回顶部