微博 微信

Hao4K影音

[美剧] 红橡树 第三季4k Red.Oaks.S03.2160p.美剧下载

2021-5-26 14:20:56 5534 3 回帖奖励 |倒序浏览 |阅读模式

大红色 帖主

2021-5-18 21:45:00

电视剧频道
电视剧封面:
电视剧名: 红橡树 第三季4k
年  代: 2017  
国  家: 美国
类  别: 剧情 喜剧 
语  言: 英语
字  幕: 英文原版
上映日期: 2017-10-20
文件格式: mkv    
视频效果: 4K(3840x2160)    
资源大小: 16.98 GB
片  长: 30 分钟
导  演: 大卫·戈登·格林
剧情简介:   A coming-of-age comedy set in the "go-go" 80s about a college student enjoying a last hurrah before summer comes to an end--and the future begins.
红橡树 第三季4k Red.Oaks.S03.2160p.AMZN.WEB-DL.x265.10bit.HDR.DDP5.1美剧信息
  1. Video
  2. ID : 1
  3. Format : HEVC
  4. Format/Info : High Efficiency Video Coding
  5. Format profile : Main 10@L5@Main
  6. HDR format : SMPTE ST 2094 App 4, Version 0, HDR10 compatible
  7. Codec ID : V_MPEGH/ISO/HEVC
  8. Duration : 30 min 0 s
  9. Bit rate : 14.3 Mb/s
  10. Width : 3 840 pixels
  11. Height : 2 160 pixels
  12. Display aspect ratio : 16:9
  13. Frame rate mode : Constant
  14. Frame rate : 23.976 (24000/1001) FPS
  15. Standard : NTSC
  16. Color space : YUV
  17. Chroma subsampling : 4:2:0 (Type 2)
  18. Bit depth : 10 bits
  19. Bits/(Pixel*Frame) : 0.072
  20. Stream size : 2.99 GiB (96%)
  21. Default : Yes
  22. Forced : No
  23. Color range : Limited
  24. Color primaries : BT.2020
  25. Transfer characteristics : PQ
  26. Matrix coefficients : BT.2020 non-constant
  27. Mastering display color primaries : Display P3
  28. Mastering display luminance : min: 0.0001 cd/m2, max: 1000 cd/m2
  29. Maximum Content Light Level : 855 cd/m2
  30. Maximum Frame-Average Light Level : 75 cd/m2

  31. Audio
  32. ID : 2
  33. Format : E-AC-3
  34. Format/Info : Enhanced AC-3
  35. Commercial name : Dolby Digital Plus
  36. Codec ID : A_EAC3
  37. Duration : 30 min 0 s
  38. Bit rate mode : Constant
  39. Bit rate : 640 kb/s
  40. Channel(s) : 6 channels
  41. Channel layout : L R C LFE Ls Rs
  42. Sampling rate : 48.0 kHz
  43. Frame rate : 31.250 FPS (1536 SPF)
  44. Compression mode : Lossy
  45. Stream size : 137 MiB (4%)
  46. Title : English
  47. Language : English
  48. Service kind : Complete Main
  49. Default : Yes
  50. Forced : No

  51. Text
  52. ID : 3
  53. Format : UTF-8
  54. Codec ID : S_TEXT/UTF8
  55. Codec ID/Info : UTF-8 Plain Text
  56. Duration : 29 min 45 s
  57. Bit rate : 87 b/s
  58. Count of elements : 661
  59. Stream size : 19.1 KiB (0%)
  60. Title : English
  61. Language : English
  62. Default : No
  63. Forced : No
复制代码


红橡树 第三季4k Red.Oaks.S03.2160p.AMZN.WEB-DL.x265.10bit.HDR.DDP5.1美剧下载

红橡树 第三季4k Red.Oaks.S03.2160p.AMZN.WEB-DL.x265.10bit.HDR.DDP5.1【16.98 GB】
[Hao4k]红橡树 第三季4k Red.Oaks.S03.2160p.AMZN.WEB-DL.x265.10bit.HDR.DDP5.1-182K.torrent (86.01 KB)
回复

使用道具 举报

全部回复2

无名氏930 发表于 2021-5-19 10:19:11

无名氏930 2

2021-5-19 10:19:11

感谢分享
回复 支持 反对

使用道具 举报

wybinhua 发表于 2021-5-26 14:20:56

wybinhua 3

2021-5-26 14:20:56


感谢分享 还不错这部剧
回复 支持 反对

使用道具 举报

   发表回复

您需要登录后才可以回帖 登录 | 立即注册

返回列表 本版积分规则

:
白银玩家
:
未填写

主题

帖子

积分1158

关闭

站内通知上一条 /1 下一条

  • 在线客服

  • 返回顶部