微博 微信

Hao4K影音

[美剧] 看见 第一季4k See.S01.2160p.美剧下载

2021-5-26 00:01:42 85680 20 |只看大图 回帖奖励 |倒序浏览 |阅读模式

大红色 帖主

2021-5-18 22:06:42

电视剧频道
电视剧封面:
电视剧名: 看见 第一季4k
年  代: 2019  
国  家: 美国
类  别: 科幻 剧情 
语  言: 英语
字  幕: -
上映日期: 2019-11-01
文件格式: mkv    
视频效果: 4K(3840x2160)    
资源大小: 75.19 GB
片  长: -
导  演: 弗朗西斯·劳伦斯
剧情简介:  该剧由《浴血黑帮》编剧斯蒂文·奈特担任制作人,弗朗西斯·劳伦斯([红雀])执导,奈特与劳伦斯共同操刀剧本。剧集讲述在未来的世界,人类失去了视力,社会必须找到新的方式来交流互动、捕猎与生存。一对有视力的双胞胎诞生,所有这一切都受到挑战。莫玛将饰演一个无所畏惧的战士、领导者和守护人。
重見光明(港) / 末日光明(台)/看见 第一季4k See.S01.2160p.ATVP.WEB-DL.DDP5.1.Atmos.DV.x265美剧信息
  1. Video
  2. ID : 1
  3. Format : HEVC
  4. Format/Info : High Efficiency Video Coding
  5. Format profile : Main 10@L5@High
  6. HDR format : Dolby Vision, Version 1.0, dvhe.05.06, BL+RPU
  7. Codec ID : dvhe
  8. Codec ID/Info : High Efficiency Video Coding with Dolby Vision
  9. Duration : 57 min 30 s
  10. Bit rate : 24.2 Mb/s
  11. Width : 3 840 pixels
  12. Height : 1 824 pixels
  13. Original height : 1 820 pixels
  14. Display aspect ratio : 2.105
  15. Original display aspect ratio : 2.110
  16. Frame rate mode : Constant
  17. Frame rate : 23.976 (24000/1001) FPS
  18. Color space : YUV
  19. Chroma subsampling : 4:2:0
  20. Bit depth : 10 bits
  21. Bits/(Pixel*Frame) : 0.144
  22. Stream size : 9.72 GiB (97%)
  23. Default : Yes
  24. Alternate group : 1
  25. Codec configuration box : hvcC+dvcC

  26. Audio
  27. ID : 2
  28. Format : E-AC-3 JOC
  29. Format/Info : Enhanced AC-3 with Joint Object Coding
  30. Commercial name : Dolby Digital Plus with Dolby Atmos
  31. Codec ID : ec-3
  32. Duration : 57 min 30 s
  33. Bit rate mode : Constant
  34. Bit rate : 768 kb/s
  35. Maximum bit rate : 811 kb/s
  36. Channel(s) : 6 channels
  37. Channel layout : L R C LFE Ls Rs
  38. Sampling rate : 48.0 kHz
  39. Frame rate : 31.250 FPS (1536 SPF)
  40. Compression mode : Lossy
  41. Stream size : 316 MiB (3%)
  42. Language : English
  43. Service kind : Complete Main
  44. Default : Yes
  45. Alternate group : 2
  46. Complexity index : Not present / 16
  47. Number of dynamic objects : 15
  48. Bed channel count : 1 channel
  49. Bed channel configuration : LFE

  50. Text #1
  51. ID : 3
  52. Format : Timed Text
  53. Codec ID : tx3g
  54. Duration : 57 min 24 s
  55. Bit rate mode : Variable
  56. Bit rate : 41 b/s
  57. Stream size : 17.2 KiB (0%)
  58. Title : Español (Latinoamericano)
  59. Language : Spanish
  60. Forced : No

  61. Text #2
  62. ID : 4
  63. Format : Timed Text
  64. Codec ID : tx3g
  65. Duration : 55 min 46 s
  66. Bit rate mode : Variable
  67. Bit rate : 46 b/s
  68. Stream size : 19.0 KiB (0%)
  69. Title : English (SDH)
  70. Language : English
  71. Forced : No

  72. Text #3
  73. ID : 5
  74. Format : Timed Text
  75. Codec ID : tx3g
  76. Duration : 56 min 29 s
  77. Bit rate mode : Variable
  78. Bit rate : 41 b/s
  79. Stream size : 17.2 KiB (0%)
  80. Title : Français
  81. Language : French
  82. Forced : No

  83. Text #4
  84. ID : 6
  85. Format : Timed Text
  86. Codec ID : tx3g
  87. Duration : 57 min 23 s
  88. Bit rate mode : Variable
  89. Bit rate : 38 b/s
  90. Stream size : 16.1 KiB (0%)
  91. Title : PortuguÃas (Brasil)
  92. Language : Portuguese
  93. Forced : No

  94. Text #5
  95. ID : 7
  96. Format : Timed Text
  97. Codec ID : tx3g
  98. Duration : 57 min 23 s
  99. Bit rate mode : Variable
  100. Bit rate : 37 b/s
  101. Stream size : 15.7 KiB (0%)
  102. Title : Suomi
  103. Language : Finnish
  104. Forced : No

  105. Text #6
  106. ID : 8
  107. Format : Timed Text
  108. Codec ID : tx3g
  109. Duration : 57 min 23 s
  110. Bit rate mode : Variable
  111. Bit rate : 41 b/s
  112. Stream size : 17.2 KiB (0%)
  113. Title : Français (Canadien)
  114. Language : French
复制代码


重見光明(港) / 末日光明(台)/看见 第一季4k See.S01.2160p.ATVP.WEB-DL.DDP5.1.Atmos.DV.x265美剧下载

看见 第一季4k See.S01.2160p.ATVP.WEB-DL.DDP5.1.Atmos.DV.x265【75.19 GB】
[Hao4k]看见 第一季4k See.S01.2160p.ATVP.WEB-DL.DDP5.1.Atmos.DV.x265-SUPERLEAGUE.torrent (189.42 KB)
回复

使用道具 举报

全部回复20

jaing_hong 发表于 2021-5-27 09:40:11

jaing_hong 推荐

2021-5-27 09:40:11

kakaxyz 发表于 2021-5-22 10:44
没速度啊  下了一礼拜才3%

需要支持杜比视界的播放机和电视机才能看,否则会偏色。。。
回复 支持 反对

使用道具 举报

Tylerhuang0811 发表于 2021-5-22 18:31:08

Tylerhuang0811 推荐

2021-5-22 18:31:08

yifeng2017 发表于 2021-5-22 16:47
为什么视频颜色偏紫啊

整了半天发现,设备中有不支持杜比的。
回复 支持 反对

使用道具 举报

xo555 发表于 2021-5-18 22:29:16

xo555 2

2021-5-18 22:29:16

谢谢分享,楼主辛苦!
回复 支持 反对

使用道具 举报

无名氏930 发表于 2021-5-19 10:19:03

无名氏930 3

2021-5-19 10:19:03

感谢分享
回复 支持 反对

使用道具 举报

PatrickXiao 发表于 2021-5-19 10:54:04

PatrickXiao 4

2021-5-19 10:54:04

这半张脸挺像冰与火龙女那死了的老公
回复 支持 反对

使用道具 举报

ucdos2003 发表于 2021-5-19 12:47:36

ucdos2003 5

2021-5-19 12:47:36

这个是海王的主演吗?
回复 支持 反对

使用道具 举报

fqb1986 发表于 2021-5-19 13:28:04

fqb1986 6

2021-5-19 13:28:04

PatrickXiao 发表于 2021-5-19 10:54
这半张脸挺像冰与火龙女那死了的老公

很明显就是他
回复 支持 反对

使用道具 举报

h2325124 发表于 2021-5-19 20:18:53

h2325124 7

2021-5-19 20:18:53

海王?
回复 支持 反对

使用道具 举报

h2325124 发表于 2021-5-19 20:19:41

h2325124 8

2021-5-19 20:19:41


百度了下,是海王
回复 支持 反对

使用道具 举报

小兔叽乖乖 发表于 2021-5-19 21:49:09

小兔叽乖乖 9

2021-5-19 21:49:09

这个是海王的主演吗?
回复 支持 反对

使用道具 举报

wx3210 发表于 2021-5-20 18:54:42

wx3210 10

2021-5-20 18:54:42

有字幕吗兄弟?
回复 支持 反对

使用道具 举报

kakaxyz 发表于 2021-5-22 10:44:48

kakaxyz 11

2021-5-22 10:44:48

没速度啊  下了一礼拜才3%
回复 支持 反对

使用道具 举报

yifeng2017 发表于 2021-5-22 16:47:13

yifeng2017 12

2021-5-22 16:47:13

为什么视频颜色偏紫啊
回复 支持 反对

使用道具 举报

zwguang 发表于 2021-5-23 13:23:03

zwguang 14

2021-5-23 13:23:03

回复 支持 反对

使用道具 举报

一笑3 发表于 2021-5-24 12:23:46

一笑3 15

2021-5-24 12:23:46

楼主辛苦
回复 支持 反对

使用道具 举报

jaing_hong 发表于 2021-5-25 00:11:52

jaing_hong 16

2021-5-25 00:11:52

非杜比视界版本的有吗?
回复 支持 反对

使用道具 举报

szjimmylau 发表于 2021-5-26 00:01:42

szjimmylau 17

2021-5-26 00:01:42

谢谢分享
回复 支持 反对

使用道具 举报

   发表回复

您需要登录后才可以回帖 登录 | 立即注册

返回列表 本版积分规则

:
白银玩家
:
未填写

主题

帖子

积分1173

  • 在线客服

  • 返回顶部