微博 微信

Hao4K影音

电影频道
电影封面:
片  名: P!NK:我所知道的一切4k
电影分类: 纪录片 传记 
国  家: 美国 
年  代: 2021年
分 辨 率: 4K(3840x2160)
电影格式: MKV|REMUX 
画质标准: HDR 10+ 
音质编码: Dolby Digital Plus Audio 
电影声道: 其他 
帧数/FPS: 23.976 帧
电影语言: 英文原版 
资源大小: 10.73 GB
导  演: 迈克尔·格雷西
豆瓣评分:
中文字幕: -
剧情简介: The film follows Pink on her Beautiful Trauma World Tour, as she balances being a performer with her role as a mother, wife, and boss.
PINK All I Know So Far/P!NK:我所知道的一切4k Pink.All.I.Know.So.Far.2021.HDR.2160p.WEB.H265纪录片信息
  1. Video
  2. ID : 1
  3. Format : HEVC
  4. Format/Info : High Efficiency Video Coding
  5. Format profile : Main 10@L5@Main
  6. HDR format : SMPTE ST 2094 App 4, Version 1, HDR10+ Profile B compatible
  7. Codec ID : V_MPEGH/ISO/HEVC
  8. Duration : 1 h 39 min
  9. Bit rate : 14.5 Mb/s
  10. Width : 3 840 pixels
  11. Height : 1 600 pixels
  12. Display aspect ratio : 2.40:1
  13. Frame rate mode : Constant
  14. Frame rate : 23.976 (24000/1001) FPS
  15. Color space : YUV
  16. Chroma subsampling : 4:2:0
  17. Bit depth : 10 bits
  18. Bits/(Pixel*Frame) : 0.099
  19. Stream size : 10.1 GiB (94%)
  20. Default : Yes
  21. Forced : No
  22. Color range : Limited
  23. Color primaries : BT.2020
  24. Transfer characteristics : PQ
  25. Matrix coefficients : BT.2020 non-constant
  26. Mastering display color primaries : Display P3
  27. Mastering display luminance : min: 0.0001 cd/m2, max: 1000 cd/m2
  28. Maximum Content Light Level : 3310 cd/m2
  29. Maximum Frame-Average Light Level : 894 cd/m2

  30. Audio
  31. ID : 2
  32. Format : E-AC-3
  33. Format/Info : Enhanced AC-3
  34. Commercial name : Dolby Digital Plus
  35. Codec ID : A_EAC3
  36. Duration : 1 h 39 min
  37. Bit rate mode : Constant
  38. Bit rate : 640 kb/s
  39. Channel(s) : 6 channels
  40. Channel layout : L R C LFE Ls Rs
  41. Sampling rate : 48.0 kHz
  42. Frame rate : 31.250 FPS (1536 SPF)
  43. Compression mode : Lossy
  44. Stream size : 455 MiB (4%)
  45. Language : English
  46. Service kind : Complete Main
  47. Default : Yes
  48. Forced : No

  49. Text #1
  50. ID : 3
  51. Format : UTF-8
  52. Codec ID : S_TEXT/UTF8
  53. Codec ID/Info : UTF-8 Plain Text
  54. Title : English [Forced]
  55. Language : English
  56. Default : Yes
  57. Forced : Yes

  58. Text #2
  59. ID : 4
  60. Format : UTF-8
  61. Codec ID : S_TEXT/UTF8
  62. Codec ID/Info : UTF-8 Plain Text
  63. Title : English
  64. Language : English
  65. Default : No
  66. Forced : No

  67. Text #3
  68. ID : 5
  69. Format : UTF-8
  70. Codec ID : S_TEXT/UTF8
  71. Codec ID/Info : UTF-8 Plain Text
  72. Title : Arabic
  73. Language : Arabic
  74. Default : No
  75. Forced : No

  76. Text #4
  77. ID : 6
  78. Format : UTF-8
  79. Codec ID : S_TEXT/UTF8
  80. Codec ID/Info : UTF-8 Plain Text
  81. Title : Chinese Simplified
  82. Language : Chinese
  83. Default : No
  84. Forced : No

  85. Text #5
  86. ID : 7
  87. Format : UTF-8
  88. Codec ID : S_TEXT/UTF8
  89. Codec ID/Info : UTF-8 Plain Text
  90. Title : Chinese Traditional
  91. Language : Chinese
  92. Default : No
  93. Forced : No

  94. Text #6
  95. ID : 8
  96. Format : UTF-8
  97. Codec ID : S_TEXT/UTF8
  98. Codec ID/Info : UTF-8 Plain Text
  99. Title : Czech (Czechia)
  100. Language : Czech
  101. Default : No
  102. Forced : No

  103. Text #7
  104. ID : 9
  105. Format : UTF-8
  106. Codec ID : S_TEXT/UTF8
  107. Codec ID/Info : UTF-8 Plain Text
  108. Title : Danish
  109. Language : Danish
  110. Default : No
  111. Forced : No

  112. Text #8
  113. ID : 10
  114. Format : UTF-8
  115. Codec ID : S_TEXT/UTF8
  116. Codec ID/Info : UTF-8 Plain Text
  117. Title : Dutch
  118. Language : Dutch
  119. Default : No
  120. Forced : No
复制代码


PINK All I Know So Far/P!NK:我所知道的一切4k Pink.All.I.Know.So.Far.2021.HDR.2160p.WEB.H265纪录片下载

P!NK:我所知道的一切4k Pink.All.I.Know.So.Far.2021.HDR.2160p.WEB.H265【10.73 GB】
[Hao4k]P!NK:我所知道的一切4k Pink.All.I.Know.So.Far.2021.HDR.2160p.WEB.H265-BIG.torrent (54.37 KB, 售价: 2 K币)
回复

使用道具 举报

全部回复22

liu6646 发表于 2021-5-21 14:31:15 Hao4K手机版

liu6646 2

2021-5-21 14:31:15

好电影,谢谢楼主分享。
回复 支持 反对

使用道具 举报

liyun80000 发表于 2021-5-21 14:35:42

liyun80000 3

2021-5-21 14:35:42

谢谢楼主分享
回复 支持 反对

使用道具 举报

ZYZN2011 发表于 2021-5-21 19:06:35

ZYZN2011 4

2021-5-21 19:06:35

感谢分享
回复 支持 反对

使用道具 举报

aabbccddeeff 发表于 2021-5-21 20:11:18

aabbccddeeff 5

2021-5-21 20:11:18

谢谢楼主分享!!
回复 支持 反对

使用道具 举报

五迷三道66 发表于 2021-5-21 20:26:24

五迷三道66 6

2021-5-21 20:26:24

太给力了
回复 支持 反对

使用道具 举报

liu6646 发表于 2021-5-21 22:04:11 Hao4K手机版

liu6646 7

2021-5-21 22:04:11

好资源,谢谢楼主分享!
回复 支持 反对

使用道具 举报

josephlok 发表于 2021-5-21 22:22:07

josephlok 8

2021-5-21 22:22:07

好电影
回复 支持 反对

使用道具 举报

crazyxueqiang 发表于 2021-5-21 23:07:00

crazyxueqiang 9

2021-5-21 23:07:00


谢谢楼主分享!!
回复 支持 反对

使用道具 举报

yangly 发表于 2021-5-22 08:41:19

yangly 10

2021-5-22 08:41:19


感谢分享!
回复 支持 反对

使用道具 举报

svips163 发表于 2021-5-22 12:51:03

svips163 11

2021-5-22 12:51:03

有没有欧美摇滚乐队的专辑。好像看看林肯公园 还有绿日
回复 支持 反对

使用道具 举报

xxw8888 发表于 2021-5-22 17:20:48 Hao4K手机版

xxw8888 12

2021-5-22 17:20:48

感谢分享
回复 支持 反对

使用道具 举报

shc1223605 发表于 2021-5-22 18:05:28

shc1223605 13

2021-5-22 18:05:28

谢谢分享,顶你!!比心
回复 支持 反对

使用道具 举报

hjj464457 发表于 2021-5-22 21:41:22

hjj464457 14

2021-5-22 21:41:22

可以哦
回复 支持 反对

使用道具 举报

deeper2021 发表于 2021-5-23 16:27:37

deeper2021 15

2021-5-23 16:27:37


谢谢分享
回复 支持 反对

使用道具 举报

cardinlai 发表于 2021-5-23 17:50:59

cardinlai 16

2021-5-23 17:50:59

感谢分享
回复 支持 反对

使用道具 举报

shenzengjing 发表于 2021-5-25 13:37:57

shenzengjing 17

2021-5-25 13:37:57

必须支持下楼主
回复 支持 反对

使用道具 举报

cdyangjun2019 发表于 2021-5-25 14:35:08

cdyangjun2019 18

2021-5-25 14:35:08

不错的纪录片,谢谢楼主分享
回复 支持 反对

使用道具 举报

   发表回复

您需要登录后才可以回帖 登录 | 立即注册

返回列表 本版积分规则

  • 在线客服

  • 返回顶部